<?xml version="1.0" standalone="no"?>
<!DOCTYPE svg PUBLIC "-//W3C//DTD SVG 1.1//EN" "http://www.w3.org/Graphics/SVG/1.1/DTD/svg11.dtd" >
<svg xmlns="http://www.w3.org/2000/svg">
<metadata>Generated by IcoMoon</metadata>
<defs>
<font id="jobsearch-icon" horiz-adv-x="1024">
<font-face units-per-em="1024" ascent="896" descent="-128" />
<missing-glyph horiz-adv-x="1024" />
<glyph unicode="&#x20;" horiz-adv-x="400" d="" />
<glyph unicode="&#xe900;" glyph-name="twitter-logo" d="M280.32 637.44l378.88-506.88h85.76l-378.88 506.88zM512 890.88c-280.32 0-506.88-226.56-506.88-506.88s226.56-506.88 506.88-506.88 506.88 226.56 506.88 506.88-226.56 506.88-506.88 506.88zM638.72 90.88l-172.8 230.4-213.76-230.4h-55.040l243.2 263.68-240.64 322.56h186.88l158.72-212.48 195.84 212.48h55.040l-226.56-244.48 256-341.76h-186.88z" />
<glyph unicode="&#xe901;" glyph-name="twitter-circular-button" d="M512 887.040c-277.76 0-503.040-225.28-503.040-503.040s226.56-503.040 503.040-503.040 503.040 225.28 503.040 503.040c0 277.76-225.28 503.040-503.040 503.040zM512-64c-247.040 0-448 200.96-448 448s200.96 448 448 448 448-200.96 448-448-200.96-448-448-448zM551.68 423.68l172.8 186.88h-17.92l-162.56-175.36-1.28 1.28-130.56 174.080h-125.44l186.88-250.88-185.6-202.24h17.92l176.64 190.72 1.28-1.28 140.8-189.44h126.72zM615.68 419.84l221.44 239.36h-153.6l-135.68-147.2-110.080 147.2h-249.6l221.44-296.96-234.24-253.44h153.6l149.76 162.56 121.6-162.56h249.6l-234.24 311.040zM614.4 139.52l-134.4 179.2-166.4-179.2h-69.12l2.56 2.56 202.24 218.88-200.96 268.8h174.080l122.88-165.12 152.32 165.12h69.12l-2.56-2.56-188.16-204.8 211.2-282.88h-172.8z" />
<glyph unicode="&#xe902;" glyph-name="twitter-line" d="M11.52 855.040l387.84-518.4-390.4-422.4h88.32l341.76 369.92 276.48-369.92h299.52l-409.6 547.84 362.24 392.96h-88.32l-313.6-340.48-254.72 340.48h-299.52zM140.8 789.76h136.96l606.72-811.52h-136.96l-606.72 811.52z" />
<glyph unicode="&#xe903;" glyph-name="resume-document" d="M914.315 627.032c-0.048 0.461-0.127 0.916-0.207 1.367-0.028 0.155-0.045 0.313-0.069 0.465-0.107 0.537-0.248 1.067-0.399 1.591-0.021 0.065-0.031 0.131-0.052 0.2-0.162 0.523-0.351 1.043-0.558 1.55-0.024 0.062-0.041 0.127-0.069 0.189-0.2 0.479-0.427 0.943-0.665 1.405-0.045 0.086-0.079 0.182-0.127 0.265-0.22 0.42-0.479 0.823-0.73 1.222-0.076 0.121-0.145 0.248-0.224 0.365-0.241 0.365-0.513 0.713-0.785 1.061-0.11 0.141-0.207 0.293-0.32 0.427-0.331 0.403-0.685 0.785-1.050 1.16-0.069 0.069-0.121 0.141-0.189 0.21l-251.961 251.957c-0.437 0.437-0.899 0.851-1.37 1.24-0.103 0.086-0.217 0.162-0.324 0.241-0.382 0.3-0.768 0.596-1.164 0.861-0.096 0.069-0.203 0.121-0.3 0.182-0.424 0.272-0.851 0.537-1.295 0.775-0.062 0.034-0.131 0.062-0.196 0.093-0.486 0.251-0.974 0.492-1.481 0.699-0.028 0.014-0.062 0.021-0.086 0.034-0.541 0.224-1.088 0.42-1.649 0.592-0.024 0.007-0.048 0.007-0.069 0.014-0.565 0.172-1.14 0.317-1.722 0.434-0.072 0.017-0.152 0.021-0.224 0.038-0.53 0.096-1.067 0.186-1.611 0.238-0.344 0.034-0.692 0.038-1.043 0.052-0.272 0.010-0.547 0.041-0.83 0.041-0.007 0-0.010 0-0.017 0h-515.040c-10.437 0-18.897-8.46-18.897-18.897v-986.206c0-10.433 8.46-18.894 18.897-18.894h767.022c10.437 0 18.897 8.46 18.897 18.894v734.252c0 0.024-0.007 0.052-0.007 0.072 0 0.613-0.031 1.216-0.086 1.811zM849.897 644.036l-187.439-0.021-0.014 187.463 187.453-187.443zM876.614-90.209h-729.231v948.415h477.267l0.014-233.091c0-5.010 1.99-9.82 5.533-13.36 3.543-3.543 8.354-5.533 13.364-5.533l233.053 0.028v-696.457zM385.787 631.491c43.324 0 78.567 35.253 78.567 78.588s-35.243 78.588-78.567 78.588c-43.328 0-78.577-35.253-78.577-78.588-0.003-43.335 35.25-78.588 78.577-78.588zM385.787 750.876c22.482 0 40.776-18.301 40.776-40.8 0-22.492-18.295-40.797-40.776-40.797-22.489 0-40.783 18.301-40.783 40.797 0 22.499 18.291 40.8 40.783 40.8zM297.992 488.065c10.437 0 18.897 8.46 18.897 18.894v33.146c0 21.425 17.437 38.851 38.862 38.851h60.541c21.438 0 38.879-17.43 38.879-38.851v-33.146c0-10.433 8.457-18.894 18.894-18.894s18.897 8.46 18.897 18.894v33.146c0 42.26-34.392 76.642-76.673 76.642h-60.541c-42.267 0-76.656-34.379-76.656-76.642v-33.146c0.007-10.433 8.467-18.894 18.901-18.894zM279.098 354.704c0-10.433 8.46-18.894 18.894-18.894h428.027c10.437 0 18.897 8.46 18.897 18.894 0 10.437-8.46 18.897-18.897 18.897h-428.027c-10.433 0-18.894-8.46-18.894-18.897zM726.019 93.99h-428.027c-10.433 0-18.894-8.46-18.894-18.897s8.46-18.897 18.894-18.897h428.027c10.437 0 18.897 8.46 18.897 18.897 0.003 10.437-8.46 18.897-18.897 18.897zM726.019 233.797h-428.027c-10.433 0-18.894-8.46-18.894-18.897s8.46-18.897 18.894-18.897h428.027c10.437 0 18.897 8.46 18.897 18.897 0.003 10.437-8.46 18.897-18.897 18.897z" />
<glyph unicode="&#xe904;" glyph-name="paper" d="M139.8 874v-980h510.8l233.6 231.4v748.6h-744.4zM179.4 832.2h663v-677.6h-200.2c-12.6 0-20.8-10.4-20.8-20.8v-198h-442v896.4zM663.2-35.2v150.2h150.2l-150.2-150.2zM289.8 690.6h440v-41.8h-440v41.8zM289.8 513.2h440v-41.8h-440v41.8zM289.8 336h440v-41.8h-440v41.8z" />
<glyph unicode="&#xe905;" glyph-name="coding" d="M119.467 8.533c-65.86 0-119.467-53.606-119.467-119.467 0-9.438 7.629-17.067 17.067-17.067h204.8c9.438 0 17.067 7.629 17.067 17.067 0 65.86-53.606 119.467-119.467 119.467zM35.857-93.867c6.793 33.365 33.178 59.58 66.543 66.389v-32.256h34.133v32.256c33.365-6.827 59.75-33.024 66.543-66.389h-167.219zM1006.933 162.133h-29.935c-0.939 2.372-1.911 4.727-2.97 7.1l21.18 21.18c6.673 6.673 6.673 17.459 0 24.132l-72.397 72.397c-3.533 3.533-8.192 5.069-12.817 4.847 27.051 14.353 45.739 42.462 45.739 75.145v443.733c0 47.053-38.281 85.333-85.333 85.333h-785.067c-47.053 0-85.333-38.281-85.333-85.333v-443.733c0-47.053 38.281-85.333 85.333-85.333h222.72l-64.478-119.467h-30.242c-32.939 0-59.733-26.795-59.733-59.733s26.795-59.733 59.733-59.733h366.933c0-9.438 7.629-17.067 17.067-17.067h29.935c0.939-2.372 1.911-4.727 2.97-7.1l-21.18-21.18c-6.673-6.673-6.673-17.459 0-24.132l72.397-72.397c6.673-6.673 17.459-6.673 24.132 0l21.18 21.18c2.372-1.058 4.727-2.031 7.1-2.97v-29.935c0-9.438 7.629-17.067 17.067-17.067h102.4c9.438 0 17.067 7.629 17.067 17.067v29.935c2.372 0.939 4.727 1.911 7.1 2.97l21.18-21.18c6.673-6.673 17.459-6.673 24.132 0l72.397 72.397c6.673 6.673 6.673 17.459 0 24.132l-21.18 21.18c1.058 2.372 2.031 4.727 2.97 7.1h29.935c9.438 0 17.067 7.629 17.067 17.067v102.4c0 9.438-7.629 17.067-17.067 17.067zM34.133 810.667c0 28.228 22.972 51.2 51.2 51.2h785.067c28.228 0 51.2-22.972 51.2-51.2v-358.4h-887.467v358.4zM85.333 315.733c-28.228 0-51.2 22.972-51.2 51.2v51.2h887.467v-51.2c0-28.228-22.972-51.2-51.2-51.2h-785.067zM898.458 286.72l-20.958-20.958c-2.372 1.058-4.727 2.031-7.1 2.97v12.868c9.882 0 19.217 2.014 28.058 5.12zM733.867 281.6v-12.868c-2.372-0.939-4.727-1.911-7.1-2.97l-15.838 15.838h22.938zM676.096 281.6l-14.711-14.711-10.018 14.711h24.73zM580.267 76.8h-366.933c-14.114 0-25.6 11.486-25.6 25.6s11.486 25.6 25.6 25.6h366.933v-51.2zM282.359 162.15l64.469 119.45h263.236l26.761-39.27-27.767-27.767c-6.673-6.673-6.673-17.459 0-24.132l21.18-21.18c-1.058-2.372-2.031-4.727-2.97-7.1h-344.909zM989.867 59.733h-24.9c-7.458 0-14.029-4.83-16.282-11.93-2.594-8.243-6.093-16.64-10.411-24.9-3.447-6.622-2.202-14.694 3.072-19.968l17.681-17.681-48.265-48.265-17.681 17.681c-5.291 5.274-13.346 6.502-19.968 3.072-8.26-4.318-16.657-7.817-24.9-10.411-7.117-2.27-11.947-8.841-11.947-16.299v-24.9h-68.267v24.9c0 7.458-4.83 14.029-11.93 16.282-8.243 2.594-16.64 6.093-24.9 10.411-6.622 3.43-14.694 2.202-19.968-3.072l-17.681-17.681-48.265 48.265 17.681 17.681c5.274 5.274 6.519 13.346 3.072 19.968-4.318 8.26-7.817 16.657-10.411 24.9-2.27 7.117-8.841 11.947-16.299 11.947h-24.9v68.267h24.9c7.458 0 14.029 4.83 16.282 11.93 2.594 8.243 6.093 16.64 10.411 24.9 3.447 6.622 2.202 14.694-3.072 19.968l-17.681 17.681 48.265 48.265 17.681-17.681c5.274-5.291 13.346-6.519 19.968-3.072 8.26 4.318 16.657 7.817 24.9 10.411 7.117 2.27 11.947 8.841 11.947 16.299v24.9h68.267v-24.9c0-7.458 4.83-14.029 11.93-16.282 8.243-2.594 16.64-6.093 24.9-10.411 6.622-3.447 14.677-2.219 19.968 3.072l17.681 17.681 48.265-48.265-17.681-17.681c-5.274-5.274-6.519-13.346-3.072-19.968 4.318-8.26 7.817-16.657 10.411-24.9 2.27-7.117 8.841-11.947 16.299-11.947h24.9v-68.267zM802.133 196.267c-56.474 0-102.4-45.926-102.4-102.4s45.926-102.4 102.4-102.4 102.4 45.926 102.4 102.4-45.926 102.4-102.4 102.4zM802.133 25.6c-37.649 0-68.267 30.618-68.267 68.267s30.618 68.267 68.267 68.267 68.267-30.618 68.267-68.267-30.618-68.267-68.267-68.267zM336.333 764.467l-24.132 24.132-119.467-119.467c-6.673-6.673-6.673-17.459 0-24.132l119.467-119.467 24.132 24.132-107.401 107.401 107.401 107.401zM711.799 669.133l-119.467 119.467-24.132-24.132 107.401-107.401-107.401-107.401 24.132-24.132 119.467 119.467c6.673 6.673 6.673 17.459 0 24.132zM360.183 528.16l153.555 307.111 30.529-15.264-153.555-307.111-30.529 15.264zM665.6 554.667h34.133v-34.133h-34.133v34.133zM733.867 554.667h34.133v-34.133h-34.133v34.133zM802.133 554.667h34.133v-34.133h-34.133v34.133z" />
<glyph unicode="&#xe906;" glyph-name="office" d="M0-128h512v1024h-512v-1024zM320 768h128v-128h-128v128zM320 512h128v-128h-128v128zM320 256h128v-128h-128v128zM64 768h128v-128h-128v128zM64 512h128v-128h-128v128zM64 256h128v-128h-128v128zM576 576h448v-64h-448zM576-128h128v256h192v-256h128v576h-448z" />
<glyph unicode="&#xe907;" glyph-name="24-hours" d="M384.226 211.633l38.534 84.137 27.345-12.524-38.534-84.137-27.345 12.524zM498.168 105.882l86.732 32.239 10.478-28.19-86.732-32.239-10.478 28.19zM196.641 292.57l28.19 10.478 32.239-86.732-28.19-10.478-32.239 86.732zM131.027-12.058c2.172 2.404 5.36 5.114 9.578 8.128 4.214 3.010 8.79 6.020 13.732 9.036 4.934 3.008 9.94 5.96 14.996 8.854 5.062 2.89 9.398 5.42 13.012 7.586 5.296 3.13 10.48 6.564 15.538 10.3 5.062 3.734 9.632 8.066 13.732 13.008 4.094 4.934 7.412 10.538 9.94 16.806 2.528 6.262 3.794 13.37 3.794 21.32 0 19.27-6.926 34.564-20.778 45.892-13.858 11.324-33.788 16.984-59.81 16.984-10.604 0-20.778-0.962-30.532-2.892-9.758-1.932-18.736-4.516-26.924-7.768-8.192-3.252-15.54-6.93-22.044-11.020-6.504-4.098-11.688-8.314-15.538-12.65l36.858-42.64c6.986 7.948 14.212 14.392 21.684 19.334 7.464 4.934 16.26 7.408 26.378 7.408 8.912 0 15.776-2.052 20.598-6.142 4.818-4.098 7.226-9.52 7.226-16.264 0-3.374-0.966-6.322-2.89-8.852-1.932-2.528-5.122-5.364-9.576-8.492-4.46-3.132-10.478-6.748-18.066-10.838-7.59-4.102-17.048-9.278-28.37-15.54-10.604-6.024-19.394-12.17-26.378-18.432-6.988-6.266-12.53-13.072-16.622-20.414-4.102-7.352-6.992-15.484-8.674-24.394-1.69-8.912-2.528-19.032-2.528-30.354h179.959v52.038h-98.296zM415.642-8.444v150.691h-39.39l-117.808-151.053v-51.674h99.376v-49.51h57.82v49.51h31.802v52.038h-31.8zM364.693-8.446h-49.146l49.146 63.964v-63.964zM1000.268 407.73c0 130.421-50.788 253.035-143.009 345.261-92.222 92.222-214.839 143.009-345.259 143.009s-253.037-50.788-345.261-143.009c-92.222-92.224-143.009-214.839-143.009-345.261 0-70.588 14.742-138.693 43.812-202.423l27.362 12.482c-25.198 55.248-38.894 114.022-40.834 174.905h61.55v30.078h-61.538c2.4 74.040 22.44 143.693 56.062 204.885l52.926-31.266 15.298 25.894-52.89 31.244c36.264 56.824 84.706 105.148 141.619 141.285l31.12-52.956 25.93 15.24-31.152 53.006c60.968 33.318 130.299 53.158 203.967 55.548v-61.538h30.078v61.536c74.040-2.4 143.693-22.44 204.885-56.062l-31.268-52.926 25.894-15.298 31.246 52.89c56.824-36.264 105.148-84.706 141.285-141.617l-52.958-31.118 15.24-25.93 53.010 31.148c33.318-60.968 53.158-130.299 55.548-203.967h-61.538v-30.078h61.538c-2.4-74.040-22.44-143.693-56.062-204.885l-52.926 31.266-15.298-25.894 52.89-31.244c-36.264-56.824-84.706-105.148-141.619-141.285l-31.12 52.956-25.93-15.24 31.15-53.008c-55.88-30.536-118.782-49.76-185.611-54.598l24.966 24.964-21.268 21.268-62.496-62.496 62.494-62.496 21.268 21.264-27.2 27.2c118.696 7.428 229.259 57.166 314.099 142.001 92.222 92.23 143.009 214.843 143.009 345.265zM571.686 422.768c-5.514 21.878-22.77 39.134-44.648 44.648v269.963h-30.078v-269.961c-26.694-6.73-46.514-30.934-46.514-59.688 0-33.942 27.614-61.552 61.552-61.552 28.754 0 52.958 19.818 59.688 46.514h178.951v30.078h-178.951zM511.998 376.256c-17.354 0-31.474 14.12-31.474 31.474s14.12 31.474 31.474 31.474c17.354 0 31.474-14.12 31.474-31.474 0.002-17.354-14.118-31.474-31.474-31.474z" />
<glyph unicode="&#xe908;" glyph-name="company-workers" d="M407.686 317.138c-1.942-51.91 17.779-94.060 54.109-115.645 15.485-9.199 32.841-13.798 50.204-13.798 17.356 0 34.721 4.599 50.202 13.796 36.33 21.583 56.054 63.736 54.112 115.645-2.418 64.632-55.351 95.887-103.509 97.579-0.538 0.021-1.076 0.021-1.614 0-48.154-1.689-101.082-32.945-103.505-97.577zM453.624 315.419c1.407 37.514 32.133 52.133 58.373 53.323 26.245-1.193 56.973-15.809 58.376-53.323 1.294-34.565-10.245-61.685-31.653-74.403-16.48-9.794-36.96-9.794-53.445 0-21.408 12.72-32.945 39.838-31.651 74.403zM774.303 317.138c-1.945-51.91 17.777-94.060 54.109-115.645 15.481-9.199 32.841-13.798 50.202-13.798s34.719 4.599 50.202 13.798c36.333 21.583 56.054 63.736 54.109 115.643-2.418 64.632-55.348 95.887-103.505 97.579-0.533 0.021-1.078 0.021-1.611 0-48.163-1.689-101.098-32.947-103.507-97.577zM820.241 315.421c1.398 37.512 32.129 52.128 58.373 53.321 26.242-1.193 56.969-15.809 58.373-53.323 1.294-34.567-10.242-61.685-31.651-74.403-16.485-9.794-36.96-9.794-53.445 0-21.408 12.718-32.945 39.836-31.651 74.405zM645.098 635.072c15.485-9.199 32.841-13.798 50.204-13.798 17.358 0 34.719 4.599 50.202 13.798 36.333 21.583 56.056 63.736 54.114 115.648-2.42 64.627-55.353 95.883-103.512 97.574-0.538 0.018-1.078 0.018-1.611 0-48.154-1.692-101.087-32.947-103.505-97.574-1.945-51.912 17.777-94.062 54.107-115.648zM636.927 748.998c1.404 37.512 32.131 52.128 58.373 53.319 26.245-1.191 56.973-15.807 58.378-53.319 1.294-34.567-10.245-61.688-31.653-74.408-16.487-9.794-36.967-9.792-53.445 0-21.411 12.722-32.947 39.843-31.653 74.408zM95.182 201.493c15.483-9.196 32.844-13.796 50.202-13.796s34.719 4.599 50.204 13.798c36.33 21.583 56.054 63.733 54.112 115.645-2.423 64.63-55.355 95.885-103.509 97.577-0.538 0.021-1.076 0.021-1.614 0-48.159-1.689-101.091-32.947-103.512-97.579-1.938-51.91 17.786-94.062 54.116-115.645zM87.008 315.419c1.402 37.514 32.133 52.13 58.378 53.323 26.242-1.193 56.971-15.809 58.376-53.323 1.294-34.565-10.245-61.683-31.653-74.403-16.483-9.792-36.965-9.792-53.447 0-21.408 12.718-32.947 39.838-31.653 74.403zM657-52.009c2.312-12.481-5.932-24.484-18.416-26.796-1.414-0.262-2.825-0.407-4.213-0.407-10.865 0-20.523 7.7-22.574 18.767l-20.264 109.327c-6.969 37.631-44.968 54.332-79.536 54.332s-72.564-17.129-79.533-54.758l-15.232-82.795h104.642c12.692 0 22.985-10.29 22.985-22.985s-10.29-22.985-22.985-22.985h-132.275c-6.829 0-13.304 3.604-17.671 8.856-4.367 5.25-6.174 12.738-4.93 19.452l20.266 109.398c11.78 63.6 71.137 92.072 124.736 92.072s112.956-28.469 124.738-92.072l20.261-109.407zM695.296 532.606c-34.563-0.002-72.557-16.846-79.524-54.473-2.312-12.483-14.311-20.723-26.785-18.418-12.483 2.31-20.728 14.304-18.418 26.785 11.775 63.6 71.125 92.072 124.725 92.074 53.604 0.005 112.968-28.463 124.752-92.072 2.312-12.483-5.932-24.475-18.416-26.787-1.414-0.262-2.825-0.388-4.213-0.388-10.865 0-20.523 7.735-22.574 18.802-6.971 37.636-44.975 54.48-79.547 54.477zM1005.198-78.805c-1.414-0.262-2.825-0.407-4.213-0.407-10.865 0-20.526 7.7-22.574 18.77l-20.259 109.327c-6.969 37.629-44.968 54.33-79.538 54.33s-72.567-17.129-79.538-54.758l-15.235-82.795h104.642c12.692 0 22.985-10.29 22.985-22.985s-10.29-22.985-22.985-22.985h-132.278c-6.829 0-13.304 3.604-17.671 8.856-4.365 5.25-6.174 12.738-4.93 19.455l20.266 109.398c11.782 63.602 71.139 92.072 124.741 92.072s112.958-28.469 124.741-92.072l20.259-109.398c2.312-12.486-5.932-24.495-18.413-26.808zM278.491 635.072c15.483-9.199 32.841-13.798 50.2-13.798 17.361 0 34.719 4.599 50.204 13.798 36.33 21.583 56.052 63.736 54.109 115.643-2.411 64.63-55.344 95.887-103.505 97.577-0.54 0.021-1.078 0.021-1.614 0-48.159-1.692-101.091-32.947-103.509-97.574-1.942-51.912 17.784-94.062 54.114-115.645zM270.317 749c1.402 37.512 32.133 52.126 58.376 53.319 26.242-1.191 56.973-15.807 58.373-53.319 1.294-34.567-10.242-61.688-31.651-74.405-16.483-9.792-36.96-9.794-53.443 0-21.411 12.718-32.949 39.838-31.655 74.405zM290.39-52.009c2.31-12.483-5.935-24.484-18.416-26.796-1.416-0.262-2.825-0.407-4.213-0.407-10.865 0-20.526 7.7-22.574 18.767l-20.261 109.327c-6.971 37.631-44.973 54.332-79.543 54.332-34.567 0-72.567-17.129-79.536-54.758l-15.228-82.795h111.356c12.695 0 22.985-10.29 22.985-22.985s-10.29-22.985-22.985-22.985h-138.992c-6.829 0-13.304 3.604-17.671 8.856s-6.174 12.738-4.93 19.455l20.259 109.398c11.78 63.6 71.137 92.072 124.736 92.072 53.604 0.002 112.963-28.467 124.745-92.072l20.266-109.41zM328.693 532.606c-34.567 0-72.567-16.844-79.538-54.475-2.312-12.481-14.308-20.719-26.787-18.416-12.481 2.312-20.728 14.306-18.413 26.787 11.78 63.602 71.137 92.072 124.738 92.072s112.958-28.469 124.741-92.072c2.31-12.483-5.935-24.475-18.416-26.787-1.416-0.262-2.825-0.388-4.213-0.388-10.865 0-20.526 7.737-22.576 18.804-6.969 37.631-44.968 54.475-79.536 54.475z" />
<glyph unicode="&#xe909;" glyph-name="graphic" d="M891.871 796.903v-363.355h132.129v363.355h-132.129zM990.968 466.581h-66.065v297.29h66.065v-297.29zM726.71 629.826c-10.57 9.447-21.587 18.3-33.032 26.508v8.44h-12.437c-64.363 42.579-140.453 66.065-218.789 66.065h-16.516v-412.903h412.903v16.516c0 33.561-4.443 66.758-12.783 99.097h12.783v297.29h-132.129v-101.013zM478.968 350.968v346.475c46.741-2.147 92.276-13.494 134.26-32.669h-51.679v-231.226h132.129v180.571c11.561-9.546 22.66-19.671 33.032-30.67v-149.9h85.157c7.63-26.938 12.305-54.586 13.576-82.581h-346.475zM660.645 631.742v-165.161h-66.065v165.161h66.065zM759.742 697.806h66.065v-231.226h-66.065v231.226zM128.709 255.304l140.375 140.375 23.357-23.357-140.375-140.375-23.357 23.357zM198.194 384c0 27.318-22.231 49.548-49.548 49.548s-49.548-22.231-49.548-49.548 22.231-49.548 49.548-49.548 49.548 22.231 49.548 49.548zM132.129 384c0 9.117 7.399 16.516 16.516 16.516s16.516-7.399 16.516-16.516-7.399-16.516-16.516-16.516-16.516 7.399-16.516 16.516zM280.774 301.419c-27.318 0-49.548-22.231-49.548-49.548s22.231-49.548 49.548-49.548 49.548 22.231 49.548 49.548-22.231 49.548-49.548 49.548zM280.774 235.355c-9.117 0-16.516 7.399-16.516 16.516s7.399 16.516 16.516 16.516 16.516-7.399 16.516-16.516c0-9.117-7.399-16.516-16.516-16.516zM724.348 46.361c44.627 65.751 68.426 142.105 68.426 222.026v16.516h-379.871v379.871h-16.516c-16.318 0-32.917-1.437-49.548-3.534v234.76h-346.839v-231.226h207.872l32.256-32.256c-144.582-62.084-240.128-205.213-240.128-364.131 0-218.558 177.829-396.387 396.387-396.387 95.843 0 187.144 34.651 259.287 97.23l51.101-51.101c10.042-10.042 23.255-15.079 36.451-15.079s26.409 5.037 36.451 15.079c20.1 20.1 20.1 52.802 0 72.902l-55.329 55.329zM221.547 697.806h-188.515v165.161h280.774v-257.42l-92.259 92.259zM396.387-94.968c-200.357 0-363.355 162.998-363.355 363.355 0 150.148 93.085 284.854 232.498 338.729l81.309-81.309v102.301c11.049 1.519 22.099 2.742 33.032 3.254v-379.491h379.508c-2.89-65.156-23.123-127.306-58.764-181.777l-26.343 26.343c1.817 7.482 2.89 15.261 2.89 23.304 0 54.652-44.445 99.097-99.097 99.097s-99.097-44.445-99.097-99.097 44.445-99.097 99.097-99.097c8.043 0 15.822 1.074 23.304 2.89l30.885-30.885c-65.833-56.419-148.794-87.618-235.867-87.618zM644.129 119.742c0-36.435-29.63-66.065-66.065-66.065s-66.065 29.63-66.065 66.065 29.63 66.065 66.065 66.065 66.065-29.63 66.065-66.065zM756.323-58.517c-7.234-7.234-18.961-7.234-26.195 0l-96.355 96.355c10.29 7.019 19.175 15.905 26.195 26.195l96.355-96.355c7.218-7.234 7.218-18.961 0-26.195zM66.065 829.935h214.71v-33.032h-214.71v33.032zM66.065 763.871h214.71v-33.032h-214.71v33.032zM561.548 136.258h33.032v-33.032h-33.032v33.032zM412.903 136.258h33.032v-33.032h-33.032v33.032zM346.839 136.258h33.032v-33.032h-33.032v33.032zM280.774 136.258h33.032v-33.032h-33.032v33.032z" />
<glyph unicode="&#xe90a;" glyph-name="support" d="M443.733 571.733c-28.228 0-51.2-22.972-51.2-51.2h34.133c0 9.404 7.646 17.067 17.067 17.067s17.067-7.663 17.067-17.067h34.133c0 28.228-22.972 51.2-51.2 51.2zM580.267 571.733c-28.228 0-51.2-22.972-51.2-51.2h34.133c0 9.404 7.646 17.067 17.067 17.067s17.067-7.663 17.067-17.067h34.133c0 28.228-22.972 51.2-51.2 51.2zM512 110.933c-37.649 0-68.267-30.618-68.267-68.267s30.618-68.267 68.267-68.267 68.267 30.618 68.267 68.267-30.618 68.267-68.267 68.267zM512 8.533c-18.825 0-34.133 15.309-34.133 34.133s15.309 34.133 34.133 34.133c18.825 0 34.133-15.309 34.133-34.133s-15.309-34.133-34.133-34.133zM921.6-93.867v221.867c0 141.158-114.842 256-256 256h-18.586c6.076 5.342 11.793 11.042 17.203 17.067h18.449c47.053 0 85.333 38.281 85.333 85.333v30.071c20.565 13.79 34.133 37.239 34.133 63.795 0 26.658-13.67 50.142-34.338 63.915-2.27 139.213-116.036 251.819-255.795 251.819s-253.525-112.606-255.795-251.819c-20.668-13.773-34.338-37.257-34.338-63.915 0-42.342 34.458-76.8 76.8-76.8h11.622c7.987-47.292 32.154-89.054 66.714-119.467h-18.603c-141.158 0-256-114.842-256-256v-221.867h-102.4v-34.133h1024v34.133h-102.4zM733.867 486.4c0-25.89-19.388-47.121-44.356-50.5 11.827 20.565 20.122 43.349 24.201 67.567h11.622c2.918 0 5.7 0.546 8.533 0.87v-17.937zM768 580.267c0-23.518-19.132-42.667-42.667-42.667h-8.533v85.333h8.533c23.535 0 42.667-19.149 42.667-42.667zM307.2 537.6h-8.533c-23.535 0-42.667 19.149-42.667 42.667s19.132 42.667 42.667 42.667h8.533v-85.333zM298.667 657.067c-2.645 0-5.137-0.512-7.714-0.785 8.397 114.739 104.209 205.585 221.047 205.585s212.651-90.846 221.047-205.585c-2.577 0.273-5.069 0.785-7.714 0.785h-11.622c-16.316 96.7-100.437 170.667-201.711 170.667s-185.395-73.967-201.711-170.667h-11.622zM682.65 623.36c-123.17 4.335-204.783 54.699-204.783 101.973 0 9.421-7.629 17.067-17.067 17.067s-17.067-7.646-17.067-17.067c0-42.65-44.1-77.995-101.41-84.258 9.097 85.606 81.715 152.525 169.677 152.525 93.952 0 170.411-76.339 170.65-170.24zM341.333 537.6v69.222c53.299 4.625 98.526 30.327 121.105 66.321 35.703-47.309 119.142-80.606 220.228-84.002v-51.541c0-38.451-12.937-73.83-34.458-102.4h-136.209v-34.133h101.956c-9.796-7.339-20.361-13.653-31.625-18.773-44.783-20.343-95.898-20.343-140.698 0-59.051 26.863-100.301 86.289-100.301 155.307zM459.247 339.934c16.862-4.506 34.492-7.134 52.753-7.134s35.891 2.628 52.753 7.134l-52.753-105.506-52.753 105.506zM484.386 213.333h-30.106l-68.267 136.533h30.106l68.267-136.533zM607.881 349.867h30.106l-68.267-136.533h-30.106l68.267 136.533zM187.733 128v-221.867h-51.2v221.867c0 118.869 94.037 215.91 211.575 221.338l68.011-136.004h-143.053c-47.053 0-85.333-38.281-85.333-85.333zM802.133-93.867h-580.267v221.867c0 28.228 22.972 51.2 51.2 51.2h477.867c28.228 0 51.2-22.972 51.2-51.2v-221.867zM887.467-93.867h-51.2v221.867c0 47.053-38.281 85.333-85.333 85.333h-143.053l68.011 136.004c117.538-5.427 211.575-102.468 211.575-221.338v-221.867zM733.867 59.733h34.133v-119.467h-34.133v119.467zM733.867 128h34.133v-34.133h-34.133v34.133zM887.467 742.4h34.133v-34.133h-34.133v34.133zM887.467 674.133h34.133v-34.133h-34.133v34.133zM887.467 605.867h34.133v-34.133h-34.133v34.133zM102.4 537.6h34.133v-34.133h-34.133v34.133zM102.4 469.333h34.133v-34.133h-34.133v34.133zM102.4 401.067h34.133v-34.133h-34.133v34.133z" />
<glyph unicode="&#xe90b;" glyph-name="pen" d="M668.582 285.674l-43.546 278.686 27.524 313.758c0.404 4.594-1.14 9.146-4.256 12.546-3.116 3.402-7.514 5.336-12.126 5.336h-242.006c-4.574 0-8.942-1.906-12.054-5.258s-4.688-7.85-4.346-12.41l22.922-307.436c-0.676-1.414-1.168-2.938-1.42-4.554l-43.854-280.67c-0.526-3.376 0.010-6.834 1.54-9.894l140.332-280.666c2.784-5.572 8.48-9.090 14.708-9.090s11.924 3.52 14.708 9.090l140.334 280.668c1.53 3.058 2.066 6.518 1.54 9.894zM618.226 863.11l-24.812-282.86h-160.434l-21.090 282.86h206.336zM512 317.122c-24.786 0-44.95 20.164-44.95 44.95s20.164 44.95 44.95 44.95 44.95-20.164 44.95-44.95c0-24.786-20.164-44.95-44.95-44.95zM528.446 72.132v213.864c35.048 7.57 61.396 38.798 61.396 76.078 0 42.922-34.92 77.842-77.842 77.842s-77.842-34.922-77.842-77.844c0-37.28 26.348-68.508 61.396-76.078v-213.864l-106.83 213.658 40.87 261.57h164.81l40.87-261.57-106.828-213.656zM836.522-7.4h-87.708c-9.084 0-16.446-7.364-16.446-16.446v-27.408h-440.736v27.408c0 9.082-7.36 16.446-16.446 16.446h-87.708c-9.084 0-16.446-7.364-16.446-16.446v-87.708c0-9.082 7.36-16.446 16.446-16.446h87.708c9.084 0 16.446 7.364 16.446 16.446v27.408h440.736v-27.408c0-9.082 7.36-16.446 16.446-16.446h87.708c9.084 0 16.446 7.364 16.446 16.446v87.708c0 9.082-7.362 16.446-16.446 16.446zM258.74-95.11h-54.818v54.818h54.818v-54.818zM820.078-95.11h-54.818v54.818h54.818v-54.818zM915.46 387.29c-9.084 0-16.446-7.364-16.446-16.446 0-213.4-173.616-387.016-387.016-387.016s-387.014 173.616-387.014 387.016c0 9.082-7.36 16.446-16.446 16.446-9.084 0-16.446-7.364-16.446-16.446 0-231.536 188.368-419.906 419.906-419.906s419.906 188.37 419.906 419.906c0.002 9.082-7.36 16.446-16.444 16.446z" />
<glyph unicode="&#xe90c;" glyph-name="search-1" d="M924.582 896h-701.12c-11.264 0-20.398-9.132-20.398-20.398v-698.062l-104.656-104.656c-25.846-25.846-25.846-67.906 0-93.754 12.924-12.924 29.902-19.386 46.878-19.386s33.956 6.462 46.878 19.386l10.898 10.898v-97.63c0-11.266 9.134-20.398 20.398-20.398h533.124c5.41 0 10.596 2.15 14.424 5.974l167.994 167.996c3.824 3.824 5.974 9.012 5.974 14.424v815.208c0.004 11.266-9.13 20.398-20.394 20.398zM163.318 7.98c-9.944-9.944-26.12-9.942-36.060 0s-9.94 26.118 0 36.058l195.444 195.444 36.060-36.060-195.444-195.442zM776.95-58.392l-0.092 98.514 98.518-0.090-98.426-98.424zM904.184 80.804l-147.726 0.134c-0.006 0-0.012 0-0.018 0-5.41 0-10.598-2.15-14.424-5.974-3.828-3.828-5.98-9.026-5.974-14.442l0.136-147.726h-492.316v118.030l158.172 158.172c7.966 7.966 7.966 20.882 0 28.848l-18.656 18.656 39.008 39.008c41.95-35.026 95.902-56.136 154.698-56.136 133.286 0 241.722 108.436 241.722 241.722s-108.44 241.718-241.724 241.718-241.722-108.434-241.722-241.72c0-59.834 21.864-114.652 58.006-156.906l-38.838-38.838-17.402 17.402c-3.826 3.824-9.014 5.974-14.424 5.974s-10.598-2.15-14.424-5.974l-64.416-64.416v636.868h660.322v-774.4zM376.158 461.094c0 110.79 90.134 200.924 200.924 200.924s200.924-90.134 200.924-200.924-90.134-200.924-200.924-200.924c-110.79 0-200.924 90.134-200.924 200.924zM692.332 480.472h-228.462c-11.264 0-20.398-9.132-20.398-20.398s9.134-20.398 20.398-20.398h228.462c11.264 0 20.398 9.132 20.398 20.398s-9.134 20.398-20.398 20.398zM692.332 400.918h-228.462c-11.264 0-20.398-9.132-20.398-20.398s9.134-20.398 20.398-20.398h228.462c11.266 0 20.398 9.132 20.398 20.398s-9.134 20.398-20.398 20.398zM555.664 562.066h-91.792c-11.264 0-20.398-9.132-20.398-20.398s9.134-20.398 20.398-20.398h91.792c11.264 0 20.398 9.132 20.398 20.398s-9.134 20.398-20.398 20.398zM629.098 562.066h-12.24c-11.264 0-20.398-9.132-20.398-20.398s9.134-20.398 20.398-20.398h12.24c11.264 0 20.398 9.132 20.398 20.398s-9.134 20.398-20.398 20.398z" />
<glyph unicode="&#xe90d;" glyph-name="handshake" d="M128.052 617.55c-27.592 0-50.046-22.454-50.046-50.046s22.454-50.046 50.046-50.046 50.046 22.454 50.046 50.046-22.454 50.046-50.046 50.046zM128.052 550.821c-9.192 0-16.682 7.49-16.682 16.682s7.49 16.682 16.682 16.682 16.682-7.49 16.682-16.682-7.49-16.682-16.682-16.682zM1024 472.299l-23.589 23.589-238.721-238.721c-0.901 1.018-1.618 2.169-2.586 3.153l-140.364 140.364 21.57 21.57-23.589 23.589-49.529-49.529c-26.541-26.525-67.629-30.195-98.208-10.994l121.229 120.278c0.017 0.017 0.017 0.033 0.033 0.050l316.961 316.961-23.589 23.589-305.15-305.15-21.57 21.57c-3.12 3.136-7.374 4.888-11.794 4.888h-59.822l-262.026 262.026-23.589-23.589 155.027-155.027-213.365-213.365-118.777 108.884-22.554-24.606 194.781-178.532v-42.706c0-4.421 1.752-8.675 4.888-11.794l72.15-72.15c-6.589-8.892-10.31-19.535-10.31-30.812 0-28.093 22.387-50.897 50.23-51.881 0.968-27.225 22.821-49.079 50.046-50.046 0.968-27.225 22.821-49.079 50.046-50.046 0.984-27.842 23.805-50.23 51.881-50.23 7.090 0 13.963 1.451 20.302 4.137l1.268-1.268c12.595-12.612 29.361-19.551 47.194-19.551s34.582 6.94 47.177 19.551l179.45 179.45c12.612 12.612 19.551 29.361 19.551 47.177 0 4.271-0.45 8.475-1.234 12.595l246.579 246.579zM165.954 414.979l212.33 212.347 43.14-43.14-210.462-210.462-45.008 41.255zM326.803 172.604c-3.537-3.52-8.224-5.472-13.229-5.472-10.31 0-18.701 8.391-18.701 18.701 0 5.005 1.952 9.692 5.472 13.229l79.374 79.374c3.537 3.52 8.224 5.472 13.229 5.472 10.31 0 18.701-8.391 18.701-18.701 0-5.005-1.952-9.692-5.472-13.229l-79.374-79.374zM376.85 122.557c-3.537-3.52-8.224-5.472-13.229-5.472-10.31 0-18.701 8.391-18.701 18.701 0 5.005 1.952 9.692 5.472 13.229l79.374 79.374c3.537 3.52 8.224 5.472 13.229 5.472 10.31 0 18.701-8.391 18.701-18.701 0-5.005-1.952-9.692-5.472-13.229l-79.374-79.374zM426.896 72.511c-3.537-3.52-8.224-5.472-13.229-5.472-10.31 0-18.701 8.391-18.701 18.701 0 5.005 1.952 9.692 5.472 13.229l79.374 79.374c3.537 3.52 8.224 5.472 13.229 5.472 10.31 0 18.701-8.391 18.701-18.701 0-5.005-1.952-9.692-5.472-13.229l-79.374-79.374zM476.942 22.465c-3.537-3.52-8.224-5.472-13.229-5.472-10.31 0-18.701 8.391-18.701 18.701 0 5.005 1.952 9.692 5.472 13.229l79.374 79.374c3.537 3.52 8.224 5.472 13.229 5.472 10.31 0 18.701-8.391 18.701-18.701 0-5.005-1.952-9.692-5.472-13.229l-79.374-79.374zM735.516 189.536l-179.45-179.45c-12.128-12.128-32.814-12.462-45.592-1.285l69.448 69.448c9.809 9.826 15.231 22.905 15.231 36.817 0 28.093-22.387 50.897-50.23 51.881-0.968 27.225-22.821 49.079-50.046 50.046-0.968 27.225-22.821 49.079-50.046 50.046-0.984 27.842-23.805 50.23-51.881 50.23-13.913 0-26.992-5.422-36.817-15.247l-61.257-61.257-66.729 66.729v36.234l216.868 216.868 21.57-21.57c3.12-3.136 7.374-4.888 11.794-4.888h59.822l16.632-16.632-122.614-121.663c-3.153-3.136-4.938-7.424-4.921-11.878s1.802-8.725 4.971-11.844c43.857-43.207 114.99-42.94 158.514 0.617l4.371 4.354 140.364-140.364c6.306-6.306 9.776-14.68 9.776-23.605s-3.47-17.283-9.776-23.589zM116.325 168.15l-29.277-16.015c5.488-10.026 11.427-20.019 17.65-29.678l28.059 18.050c-5.805 9.008-11.327 18.3-16.432 27.642zM354.362-38.158l-11.694-31.246c10.693-4.004 21.72-7.674 32.797-10.91l9.375 32.013c-10.293 3.019-20.536 6.423-30.478 10.143zM241.791 23.415l-20.035-26.691c9.175-6.89 18.734-13.529 28.376-19.735l18.050 28.059c-8.975 5.789-17.867 11.961-26.391 18.367zM295.858-11.417l-16.015-29.26c10.043-5.488 20.436-10.71 30.895-15.498l13.896 30.328c-9.742 4.471-19.418 9.325-28.777 14.43zM193.196 65.555l-23.605-23.572c8.108-8.124 16.615-16.048 25.273-23.555l21.87 25.207c-8.074 6.99-15.981 14.38-23.539 21.92zM151.073 114.133l-26.691-20.019c6.906-9.209 14.197-18.25 21.67-26.875l25.207 21.87c-6.94 8.024-13.729 16.449-20.185 25.023zM62.458 351.787l-33.281-2.369c0.801-11.427 2.035-22.971 3.653-34.332l33.031 4.704c-1.501 10.593-2.652 21.353-3.403 31.996zM29.177 418.465c-0.817-11.344-1.218-22.938-1.218-34.465v-0.050l33.364 0.050c0 10.743 0.384 21.553 1.134 32.096l-33.281 2.369zM71.533 288.178l-32.597-7.090c2.436-11.227 5.305-22.488 8.525-33.464l32.013 9.375c-2.986 10.226-5.655 20.719-7.941 31.179zM89.616 226.521l-31.262-11.678c4.004-10.71 8.441-21.437 13.212-31.863l30.345 13.863c-4.437 9.726-8.575 19.702-12.295 29.678zM921.572 196.86c-4.471-9.742-9.325-19.418-14.447-28.777l29.277-16.015c5.488 10.043 10.71 20.436 15.498 30.895l-30.328 13.896zM890.693 140.424c-5.805-9.008-11.994-17.883-18.384-26.408l26.691-20.035c6.873 9.142 13.513 18.701 19.752 28.376l-28.059 18.067zM852.091 88.993c-6.99-8.074-14.363-15.998-21.92-23.539l23.572-23.605c8.124 8.108 16.048 16.615 23.555 25.273l-25.207 21.87zM944.042 257.082c-3.019-10.26-6.423-20.519-10.143-30.495l31.246-11.678c4.020 10.727 7.674 21.77 10.91 32.797l-32.013 9.375zM957.638 319.874c-1.518-10.61-3.437-21.253-5.689-31.646l32.614-7.057c2.419 11.16 4.471 22.588 6.089 33.998l-33.014 4.704zM806.615 43.517c-8.041-6.973-16.465-13.763-25.040-20.202l20.019-26.691c9.192 6.89 18.234 14.18 26.875 21.67l-21.854 25.223zM416.003-56.242l-7.057-32.597c11.16-2.419 22.588-4.471 33.998-6.089l4.704 33.014c-10.61 1.518-21.253 3.437-31.646 5.672zM962.159 384c0-10.727-0.367-21.553-1.118-32.146l33.281-2.352c0.801 11.394 1.201 23.005 1.201 34.499h-33.364zM575.918-61.88c-10.576-1.501-21.336-2.652-31.996-3.403l2.369-33.281c11.427 0.801 22.971 2.035 34.332 3.653l-4.704 33.031zM511.741-66.418c-10.727 0-21.52 0.367-32.113 1.118l-2.352-33.281c11.377-0.801 22.988-1.201 34.482-1.201l-0.017 33.364zM755.201 4.982c-8.942-5.755-18.234-11.277-27.626-16.415l16.015-29.277c10.076 5.522 20.052 11.444 29.661 17.633l-18.050 28.059zM698.865-25.83c-9.726-4.437-19.702-8.591-29.661-12.295l11.661-31.262c10.71 4.004 21.437 8.441 31.863 13.212l-13.863 30.345zM638.709-48.284c-10.226-2.986-20.703-5.655-31.179-7.941l7.090-32.597c11.227 2.436 22.488 5.305 33.464 8.525l-9.375 32.013zM706.339 825.476l-14.697-29.961c9.259-4.538 18.784-9.659 28.31-15.214l16.816 28.827c-10.226 5.956-20.469 11.461-30.428 16.349zM511.741 867.782l-6.973-0.050 0.484-33.364 6.489 0.050c8.808 0 17.416-0.2 25.824-0.601l1.568 33.331c-8.925 0.417-18.033 0.634-27.392 0.634zM641.595 850.716l-9.359-32.030c10.093-2.953 20.235-6.406 30.145-10.276l12.161 31.062c-10.827 4.237-21.904 8.007-32.947 11.244zM573.515 864.362l-3.87-33.131c10.777-1.268 21.42-2.936 31.629-4.971l6.506 32.73c-11.060 2.202-22.588 4.004-34.265 5.372zM336.095 834.918c-10.693-4.171-21.353-8.775-31.696-13.696l14.297-30.145c9.642 4.571 19.585 8.875 29.544 12.762l-12.145 31.079zM402.073 855.287c-11.194-2.602-22.421-5.622-33.348-9.008l9.859-31.88c10.159 3.153 20.602 5.972 31.029 8.391l-7.54 32.497zM470.286 866.031c-11.461-0.984-23.005-2.369-34.298-4.154l5.205-32.964c10.493 1.668 21.236 2.969 31.913 3.87l-2.819 33.248z" />
<glyph unicode="&#xe90e;" glyph-name="office2" d="M733.866-59.734h-477.866c-9.42 0-17.066-7.646-17.066-17.066v-34.134c0-9.42 7.646-17.066 17.066-17.066s17.066 7.646 17.066 17.066v17.066h460.8c9.42 0 17.066 7.646 17.066 17.066s-7.644 17.068-17.066 17.068zM375.466 469.334c0-9.42 7.646-17.066 17.066-17.066h68.268c9.42 0 17.066 7.646 17.066 17.066v102.4c0 9.42-7.646 17.066-17.066 17.066h-68.266c-9.42 0-17.066-7.646-17.066-17.066v-102.4zM409.6 554.666h34.134v-68.266h-34.134v68.266zM221.866 691.2h-204.8c-9.42 0-17.066-7.646-17.066-17.066v-341.334c0-9.42 7.646-17.066 17.066-17.066s17.066 7.646 17.066 17.066v324.266h187.734c9.42 0 17.066 7.646 17.066 17.066s-7.644 17.068-17.066 17.068zM819.2 59.734c0-9.42 7.646-17.066 17.066-17.066h68.266c9.42 0 17.066 7.646 17.066 17.066v102.4c0 9.42-7.646 17.066-17.066 17.066h-68.266c-9.42 0-17.066-7.646-17.066-17.066v-102.4zM853.334 145.066h34.134v-68.266h-34.134v68.266zM85.334 281.6c-84.362 0-85.334-219.648-85.334-221.866 0-41.216 29.372-75.674 68.266-83.61v-87.058c0-9.42 7.646-17.066 17.066-17.066s17.066 7.646 17.066 17.066v87.058c38.894 7.936 68.266 42.394 68.266 83.61 0.002 2.218-0.97 221.866-85.33 221.866zM85.334 8.534c-28.228 0-51.2 22.972-51.2 51.2 0 85.026 22.836 187.734 51.2 187.734s51.2-102.708 51.2-187.734c0-28.228-22.972-51.2-51.2-51.2zM187.734 384h-68.268c-9.42 0-17.066-7.646-17.066-17.066v-34.134c0-9.42 7.646-17.066 17.066-17.066s17.066 7.646 17.066 17.066v17.066h34.134v-85.334c0-9.42 7.646-17.066 17.066-17.066s17.066 7.646 17.066 17.066v102.4c0.002 9.422-7.644 17.068-17.064 17.068zM836.266 452.266h68.266c9.42 0 17.066 7.646 17.066 17.066v102.4c0 9.42-7.646 17.066-17.066 17.066h-68.266c-9.42 0-17.066-7.646-17.066-17.066v-102.4c0-9.42 7.646-17.066 17.066-17.066zM853.334 554.666h34.134v-68.266h-34.134v68.266zM187.734 588.8h-68.268c-9.42 0-17.066-7.646-17.066-17.066v-102.4c0-9.42 7.646-17.066 17.066-17.066h68.266c9.42 0 17.066 7.646 17.066 17.066v102.4c0.002 9.42-7.644 17.066-17.064 17.066zM170.666 486.4h-34.132v68.266h34.134v-68.266zM546.134 469.334c0-9.42 7.646-17.066 17.066-17.066h68.266c9.42 0 17.066 7.646 17.066 17.066v102.4c0 9.42-7.646 17.066-17.066 17.066h-68.266c-9.42 0-17.066-7.646-17.066-17.066v-102.4zM580.266 554.666h34.134v-68.266h-34.134v68.266zM1006.934 691.2h-204.8c-9.42 0-17.066-7.646-17.066-17.066s7.646-17.066 17.066-17.066h187.734v-685.808c-5.358 1.912-11.042 3.14-17.066 3.14-2.952 0-5.888-0.256-8.772-0.768-11.776 21.214-34.184 34.902-59.494 34.902s-47.718-13.688-59.494-34.902c-2.884 0.512-5.82 0.768-8.772 0.768-28.228 0-51.2-22.972-51.2-51.2s22.972-51.2 51.2-51.2h136.53c28.228 0 51.2 22.972 51.2 51.2v750.934c0 9.42-7.646 17.066-17.066 17.066zM972.8-93.866h-136.534c-9.404 0-17.066 7.662-17.066 17.066s7.662 17.066 17.066 17.066c3.276 0 6.382-0.938 9.25-2.782 4.676-3.004 10.514-3.55 15.668-1.468s8.96 6.554 10.206 11.964c3.602 15.548 17.238 26.42 33.144 26.42s29.542-10.872 33.144-26.42c1.246-5.41 5.052-9.882 10.206-11.964 5.138-2.082 10.99-1.536 15.668 1.468 11.11 7.168 26.316-1.604 26.316-14.284-0.002-9.404-7.664-17.066-17.068-17.066zM563.2 657.066h68.266c9.42 0 17.066 7.646 17.066 17.066v102.4c0 9.42-7.646 17.066-17.066 17.066h-68.266c-9.42 0-17.066-7.646-17.066-17.066v-102.4c0-9.42 7.646-17.066 17.066-17.066zM580.266 759.466h34.134v-68.266h-34.134v68.266zM546.134 264.534c0-9.42 7.646-17.066 17.066-17.066h68.266c9.42 0 17.066 7.646 17.066 17.066v102.4c0 9.42-7.646 17.066-17.066 17.066h-68.266c-9.42 0-17.066-7.646-17.066-17.066v-102.4zM580.266 349.866h34.134v-68.266h-34.134v68.266zM392.534 657.066h68.266c9.42 0 17.066 7.646 17.066 17.066v102.4c0 9.42-7.646 17.066-17.066 17.066h-68.266c-9.42 0-17.066-7.646-17.066-17.066v-102.4c-0.002-9.42 7.644-17.066 17.066-17.066zM409.6 759.466h34.134v-68.266h-34.134v68.266zM499.882 71.85c-3.072-3.242-4.95-7.68-4.95-12.118s1.878-8.874 4.95-12.118c3.242-3.072 7.68-4.95 12.118-4.95s8.874 1.878 12.118 4.95c3.072 3.242 4.95 7.68 4.95 12.118s-1.878 8.874-4.95 12.118c-6.486 6.316-17.75 6.316-24.236 0zM375.466 264.534c0-9.42 7.646-17.066 17.066-17.066h68.268c9.42 0 17.066 7.646 17.066 17.066v102.4c0 9.42-7.646 17.066-17.066 17.066h-68.266c-9.42 0-17.066-7.646-17.066-17.066v-102.4zM409.6 349.866h34.134v-68.266h-34.134v68.266zM341.334 162.134c0-9.42 7.646-17.066 17.066-17.066h51.2v-153.6c0-9.42 7.646-17.066 17.066-17.066s17.066 7.646 17.066 17.066v153.6h136.534v-153.6c0-9.42 7.646-17.066 17.066-17.066s17.066 7.646 17.066 17.066v153.6h51.2c9.42 0 17.066 7.646 17.066 17.066s-7.646 17.066-17.066 17.066h-307.198c-9.42 0-17.066-7.646-17.066-17.066zM819.2 264.534c0-9.42 7.646-17.066 17.066-17.066h68.266c9.42 0 17.066 7.646 17.066 17.066v102.4c0 9.42-7.646 17.066-17.066 17.066h-68.266c-9.42 0-17.066-7.646-17.066-17.066v-102.4zM853.334 349.866h34.134v-68.266h-34.134v68.266zM733.866 896h-443.732c-9.42 0-17.066-7.646-17.066-17.066v-887.466c0-9.42 7.646-17.066 17.066-17.066s17.066 7.646 17.066 17.066v870.4h409.6v-870.4c0-9.42 7.646-17.066 17.066-17.066s17.066 7.646 17.066 17.066v887.466c0.002 9.42-7.644 17.066-17.066 17.066z" />
<glyph unicode="&#xe90f;" glyph-name="check-square" d="M848.964 561.386c-13.601 0-24.633-11.031-24.633-24.633v-615.484h-775.066v775.062h602.646c13.605 0 24.633 11.031 24.633 24.633s-11.027 24.633-24.633 24.633h-627.279c-13.601 0-24.633-11.031-24.633-24.633v-824.328c0-13.601 11.031-24.633 24.633-24.633h824.332c13.601 0 24.633 11.031 24.633 24.633v640.116c0 13.601-11.031 24.633-24.633 24.633zM1016.783 888.783c-9.619 9.619-25.216 9.627-34.835 0l-651.805-651.801-161.726 161.726c-9.619 9.623-25.22 9.623-34.835 0-9.619-9.619-9.619-25.216 0-34.831l179.145-179.145c4.807-4.812 11.113-7.217 17.419-7.217s12.608 2.406 17.419 7.217l669.216 669.216c9.623 9.619 9.623 25.216 0 34.835z" />
<glyph unicode="&#xe910;" glyph-name="arrows-4" d="M512 896c-282.761 0-512-229.239-512-512 0-282.829 229.239-512 512-512 282.829 0 512 229.171 512 512 0 282.761-229.171 512-512 512zM672.427 359.765l-221.388-221.388c-13.312-13.243-34.954-13.243-48.264 0-13.312 13.312-13.312 35.021 0 48.264l197.359 197.359-197.359 197.359c-13.312 13.312-13.312 34.954 0 48.264s34.954 13.312 48.264 0l221.388-221.388c6.827-6.69 10.036-15.497 9.966-24.235 0-8.807-3.276-17.545-9.966-24.235z" />
<glyph unicode="&#xe911;" glyph-name="arrows-3" d="M512 896c-282.77 0-512-229.23-512-512s229.23-512 512-512 512 229.23 512 512-229.23 512-512 512zM512 159.737l-288.271 287.332 47.662 47.82 240.608-239.825 240.608 239.825 47.662-47.82-288.271-287.332z" />
<glyph unicode="&#xe912;" glyph-name="building" d="M1006.932 674.133h-51.199v17.066c0 10.24-6.826 17.066-17.066 17.066s-17.066-6.826-17.066-17.066v-17.066h-68.267v17.066c0 10.24-6.826 17.066-17.066 17.066s-17.066-6.826-17.066-17.066v-17.066h-68.267v153.6c0 10.24-6.826 17.066-17.066 17.066h-153.6v17.066c0 10.24-6.826 17.066-17.066 17.066s-17.066-6.826-17.066-17.066v-17.066h-68.267v17.066c0 10.24-6.826 17.066-17.066 17.066s-17.066-6.826-17.066-17.066v-17.066h-153.6c-10.24 0-17.066-6.826-17.066-17.066v-153.6h-68.275v17.066c0 10.24-6.826 17.066-17.066 17.066s-17.066-6.826-17.066-17.066v-17.066h-68.267v17.066c0 10.24-6.826 17.066-17.066 17.066s-17.066-6.826-17.066-17.066v-17.066h-51.203c-10.24 0-17.066-6.826-17.066-17.066v-750.934c0-10.24 6.826-17.066 17.066-17.066h989.864c10.24 0 17.066 6.826 17.066 17.066v750.934c0.004 10.24-6.824 17.066-17.064 17.066zM989.866 639.999v-580.266h-238.935v580.266h238.935zM34.134 639.999h238.933v-580.266h-238.933v580.266zM34.134 25.6h238.933v-102.401h-238.933v102.401zM307.2 42.668v767.999h409.6v-887.466h-51.199v153.6c0 10.24-6.826 17.066-17.066 17.066h-273.068c-10.24 0-17.066-6.826-17.066-17.066v-153.6h-51.199v119.466zM392.533 59.733h102.401v-136.534h-102.401v136.534zM529.067-76.799v136.534h102.401v-136.534h-102.401zM989.866-76.799h-238.935v102.401h238.935v-102.401zM409.6 622.934h34.134c18.774 0 34.134 15.36 34.134 34.134v34.134c0 18.774-15.36 34.134-34.134 34.134h-34.134c-18.774 0-34.134-15.36-34.134-34.134v-34.134c0-18.774 15.36-34.134 34.134-34.134zM409.6 691.201h34.134v-34.134h-34.134v34.134zM580.266 622.934h34.134c18.774 0 34.134 15.36 34.134 34.134v34.134c0 18.774-15.36 34.134-34.134 34.134h-34.134c-18.774 0-34.134-15.36-34.134-34.134v-34.134c0-18.774 15.36-34.134 34.134-34.134zM580.266 691.201h34.134v-34.134h-34.134v34.134zM409.6 486.4h34.134c18.774 0 34.134 15.36 34.134 34.134v34.134c0 18.774-15.36 34.134-34.134 34.134h-34.134c-18.774 0-34.134-15.36-34.134-34.134v-34.134c0-18.774 15.36-34.134 34.134-34.134zM409.6 554.667h34.134v-34.134h-34.134v34.134zM580.266 486.4h34.134c18.774 0 34.134 15.36 34.134 34.134v34.134c0 18.774-15.36 34.134-34.134 34.134h-34.134c-18.774 0-34.134-15.36-34.134-34.134v-34.134c0-18.774 15.36-34.134 34.134-34.134zM580.266 554.667h34.134v-34.134h-34.134v34.134zM409.6 349.867h34.134c18.774 0 34.134 15.36 34.134 34.134v34.134c0 18.774-15.36 34.134-34.134 34.134h-34.134c-18.774 0-34.134-15.36-34.134-34.134v-34.134c0-18.774 15.36-34.134 34.134-34.134zM409.6 418.135h34.134v-34.134h-34.134v34.134zM580.266 349.867h34.134c18.774 0 34.134 15.36 34.134 34.134v34.134c0 18.774-15.36 34.134-34.134 34.134h-34.134c-18.774 0-34.134-15.36-34.134-34.134v-34.134c0-18.774 15.36-34.134 34.134-34.134zM580.266 418.135h34.134v-34.134h-34.134v34.134zM409.6 213.333h34.134c18.774 0 34.134 15.36 34.134 34.134v34.134c0 18.774-15.36 34.134-34.134 34.134h-34.134c-18.774 0-34.134-15.36-34.134-34.134v-34.134c0-18.774 15.36-34.134 34.134-34.134zM409.6 281.6h34.134v-34.134h-34.134v34.134zM580.266 213.333h34.134c18.774 0 34.134 15.36 34.134 34.134v34.134c0 18.774-15.36 34.134-34.134 34.134h-34.134c-18.774 0-34.134-15.36-34.134-34.134v-34.134c0-18.774 15.36-34.134 34.134-34.134zM580.266 281.6h34.134v-34.134h-34.134v34.134zM853.332 503.467h34.134c18.774 0 34.134 15.36 34.134 34.134v34.134c0 18.774-15.36 34.134-34.134 34.134h-34.134c-18.774 0-34.134-15.36-34.134-34.134v-34.134c0-18.774 15.36-34.134 34.134-34.134zM853.332 571.734h34.134v-34.134h-34.134v34.134zM853.332 366.933h34.134c18.774 0 34.134 15.36 34.134 34.134v34.134c0 18.774-15.36 34.134-34.134 34.134h-34.134c-18.774 0-34.134-15.36-34.134-34.134v-34.134c0-18.774 15.36-34.134 34.134-34.134zM853.332 435.2h34.134v-34.134h-34.134v34.134zM853.332 230.401h34.134c18.774 0 34.134 15.36 34.134 34.134v34.134c0 18.774-15.36 34.134-34.134 34.134h-34.134c-18.774 0-34.134-15.36-34.134-34.134v-34.134c0-18.774 15.36-34.134 34.134-34.134zM853.332 298.668h34.134v-34.134h-34.134v34.134zM853.332 93.867h34.134c18.774 0 34.134 15.36 34.134 34.134v34.134c0 18.774-15.36 34.134-34.134 34.134h-34.134c-18.774 0-34.134-15.36-34.134-34.134v-34.134c0-18.774 15.36-34.134 34.134-34.134zM853.332 162.134h34.134v-34.134h-34.134v34.134zM170.666 605.866h-34.132c-18.774 0-34.134-15.36-34.134-34.134v-34.134c0-18.774 15.36-34.134 34.134-34.134h34.134c18.774 0 34.134 15.36 34.134 34.134v34.134c-0.002 18.774-15.362 34.134-34.136 34.134zM170.666 537.601h-34.132v34.134h34.134v-34.134zM170.666 469.334h-34.132c-18.774 0-34.134-15.36-34.134-34.134v-34.134c0-18.774 15.36-34.134 34.134-34.134h34.134c18.774 0 34.134 15.36 34.134 34.134v34.134c-0.002 18.774-15.362 34.134-34.136 34.134zM170.666 401.067h-34.132v34.134h34.134v-34.134zM170.666 332.8h-34.132c-18.774 0-34.134-15.36-34.134-34.134v-34.134c0-18.774 15.36-34.134 34.134-34.134h34.134c18.774 0 34.134 15.36 34.134 34.134v34.136c-0.002 18.772-15.362 34.132-34.136 34.132zM170.666 264.535h-34.132v34.134h34.134v-34.134zM170.666 196.268h-34.132c-18.774 0-34.134-15.36-34.134-34.134v-34.134c0-18.774 15.36-34.134 34.134-34.134h34.134c18.774 0 34.134 15.36 34.134 34.134v34.134c-0.002 18.774-15.362 34.134-34.136 34.134zM170.666 128.001h-34.132v34.134h34.134v-34.134z" />
<glyph unicode="&#xe913;" glyph-name="curriculum" d="M992.427 469.333c0 150.187-122.88 273.067-273.067 273.067-153.6 0-278.187-122.88-278.187-273.067h34.133c0 131.413 109.227 238.933 244.053 238.933 131.413 0 238.933-107.52 238.933-238.933 0-116.053-81.92-215.040-196.267-235.52-8.533-1.707-13.653-8.533-13.653-17.067v-105.813h-51.2v102.4h-34.133v-102.4h-34.133c-10.24 0-17.067-6.827-17.067-17.067v-221.867h34.133v68.267h85.333v34.133h-85.333v34.133h85.333v34.133h-85.333v34.133h153.6v-204.8h34.133v221.867c0 10.24-6.827 17.067-17.067 17.067h-34.133v92.16c122.88 29.013 209.92 138.24 209.92 266.24zM407.040 230.4h-170.667c-66.56 0-119.467-52.907-119.467-119.467v-204.8h-51.2v768h170.667c10.24 0 17.067 6.827 17.067 17.067v170.667h563.2v-85.333h34.133v102.4c0 10.24-6.827 17.067-17.067 17.067h-597.333c-1.707 0-3.413 0-5.12-1.707h-1.707c-1.707-1.707-3.413-1.707-5.12-3.413v0l-187.733-187.733c-1.707-1.707-1.707-3.413-3.413-5.12v-1.707c0-1.707-1.707-3.413-1.707-5.12v0-802.133c0-10.24 6.827-17.067 17.067-17.067h477.867v238.933c0 66.56-52.907 119.467-119.467 119.467zM89.6 708.267l129.707 129.707v-129.707h-129.707zM350.72 196.267l-27.307-71.68-27.307 71.68h54.613zM492.373-93.867h-51.2v153.6h-34.133v-153.6h-170.667v153.6h-34.133v-153.6h-51.2v204.8c0 47.787 37.547 85.333 85.333 85.333h22.187l47.787-126.293c1.707-5.12 8.533-10.24 15.36-10.24s13.653 5.12 18.773 10.24l47.787 126.293h18.773c47.787 0 85.333-37.547 85.333-85.333v-204.8zM304.64 25.6h34.133v-34.133h-34.133v34.133zM304.64-42.667h34.133v-34.133h-34.133v34.133zM304.64 247.467h34.133c47.787 0 85.333 37.547 85.333 85.333v51.2c0 47.787-37.547 85.333-85.333 85.333h-34.133c-47.787 0-85.333-37.547-85.333-85.333v-51.2c0-47.787 37.547-85.333 85.333-85.333zM253.44 384c0 29.013 22.187 51.2 51.2 51.2h34.133c29.013 0 51.2-22.187 51.2-51.2v-51.2c0-29.013-22.187-51.2-51.2-51.2h-34.133c-29.013 0-51.2 22.187-51.2 51.2v51.2zM901.973 469.333c0 104.107-83.627 187.733-187.733 187.733s-187.733-83.627-187.733-187.733 83.627-187.733 187.733-187.733 187.733 83.627 187.733 187.733zM560.64 469.333c0 85.333 68.267 153.6 153.6 153.6s153.6-68.267 153.6-153.6-68.267-153.6-153.6-153.6-153.6 68.267-153.6 153.6zM697.173 486.4h34.133v-34.133h-34.133v34.133zM765.44 486.4h34.133v-34.133h-34.133v34.133zM628.907 486.4h34.133v-34.133h-34.133v34.133zM697.173 554.667h34.133v-34.133h-34.133v34.133zM697.173 418.133h34.133v-34.133h-34.133v34.133zM133.973 622.933h170.667v-34.133h-170.667v34.133zM133.973 554.667h170.667v-34.133h-170.667v34.133zM338.773 622.933h34.133v-34.133h-34.133v34.133zM338.773 554.667h34.133v-34.133h-34.133v34.133z" />
<glyph unicode="&#xe914;" glyph-name="user-2" d="M464 192c132.384 0 240 131.008 240 292 0 161.024-107.616 292-240 292-65.472 0-126.592-31.328-172.096-88.16-43.808-54.784-67.936-127.168-67.904-203.84 0-161.024 107.648-292 240-292zM464 712c97.024 0 176-102.272 176-228 0-125.76-78.976-228-176-228s-176 102.24-176.064 228c0 125.728 78.976 228 176.064 228zM665.568 224c-17.696 0-32-14.304-32-32s14.304-32 32-32c109.408 0 198.432-89.024 198.432-198.464 0-14.048-11.488-25.536-25.632-25.536h-748.8c-14.080 0-25.568 11.424-25.568 25.536 0 109.44 88.992 198.464 198.368 198.464 17.696 0 32 14.304 32 32s-14.304 32-32 32c-144.672 0-262.368-117.76-262.368-262.464 0-49.376 40.192-89.536 89.568-89.536h748.8c49.408 0 89.632 40.16 89.632 89.536 0 144.704-117.76 262.464-262.432 262.464zM487.392 811.552c22.912 13.568 47.328 20.416 72.608 20.416 97.024 0 176-102.272 176-227.968 0-22.56-2.496-44.672-7.424-65.824-4.064-17.216 6.624-34.432 23.808-38.464 2.464-0.608 4.896-0.832 7.328-0.832 14.528 0 27.648 9.952 31.136 24.672 6.016 25.952 9.152 52.992 9.152 80.448 0 160.992-107.616 292-240 292-36.384 0-72.704-10.144-105.152-29.344-15.232-8.992-20.256-28.64-11.264-43.84s28.672-20.256 43.808-11.264zM768 352c-17.696 0-32-14.304-32-32s14.304-32 32-32c109.408 0 192-91.2 192-200.576 0-3.616-0.672-7.232-2.176-10.432-7.168-16.192 0.128-35.072 16.256-42.24 4.16-1.888 8.608-2.752 12.992-2.752 12.256 0 23.936 7.136 29.248 19.008 5.088 11.488 7.68 23.744 7.68 36.512 0 144.576-111.328 264.48-256 264.48z" />
<glyph unicode="&#xe915;" glyph-name="discuss-issue" d="M783.459 630.485c0-31.022-22.584-49.888-39.076-63.733-6.246-5.244-17.871-14.813-17.84-18.387 0.113-14.020-11.16-25.216-25.183-25.216-0.071 0-0.141 0-0.212 0-13.924 0-25.27 10.852-25.383 24.802-0.223 27.496 19.842 43.961 35.967 57.499 12.652 10.624 20.948 18.099 20.948 24.94 0 13.848-11.267 25.115-25.115 25.115-13.854 0-25.123-11.267-25.123-25.115 0-14.023-11.366-25.388-25.388-25.388s-25.388 11.366-25.388 25.388c0 41.846 34.046 75.892 75.894 75.892 41.851 0.003 75.897-33.947 75.897-75.796zM701.852 499.712c-14.023 0-24.827-11.366-24.827-25.388v-0.195c0-14.023 10.807-25.293 24.827-25.293s25.388 11.464 25.388 25.487-11.366 25.388-25.388 25.388zM190.109 322.859c-14.023 0-25.388-11.366-25.388-25.388s11.366-25.388 25.388-25.388h2.116c14.023 0 25.388 11.366 25.388 25.388s-11.366 25.388-25.388 25.388h-2.116zM278.345 322.859c-14.023 0-25.388-11.366-25.388-25.388s11.366-25.388 25.388-25.388h2.113c14.023 0 25.388 11.366 25.388 25.388s-11.366 25.388-25.388 25.388h-2.113zM1024 728.366v-285.764c0-67.66-54.252-122.564-121.912-122.564h-329.251c-6.437 0-11.738 0.037-16.172 0.13-4.646 0.096-9.876 0.133-11.916-0.093-2.124-1.41-7.332-6.181-12.35-10.804-1.989-1.831-4.24-3.845-6.669-6.062l-93.153-84.905c-7.43-6.779-18.424-8.533-27.625-4.477-9.202 4.059-15.662 13.171-15.662 23.228v269.165h-265.958c-39.668 0-72.554-32.506-72.554-72.168v-285.764c0-39.665 32.889-70.851 72.554-70.851h367.777c6.333 0 12.257-2.908 16.934-7.179l75.892-69.971v241.3c0 14.023 11.366 25.388 25.388 25.388s25.388-11.366 25.388-25.388v-298.844c0-10.057-5.755-19.033-14.959-23.092-3.292-1.453-6.598-2.025-10.059-2.025-6.217 0-12.35 2.553-17.12 6.908l-111.306 102.129h-357.935c-67.663 0-123.331 53.965-123.331 121.628v285.761c0 67.66 55.668 122.945 123.331 122.945h265.958v171.369c0 67.663 56.094 122.008 123.757 122.008h389.044c67.657 0 121.91-54.345 121.91-122.008zM973.223 728.366c0 39.665-31.473 71.231-71.136 71.231h-389.041c-39.665 0-72.98-31.566-72.98-71.231v-433.767l51.045 46.131c2.364 2.158 5.013 4.133 6.945 5.916 23.309 21.479 29.273 24.912 59.677 24.285 4.147-0.087 9.086-0.118 15.103-0.118h329.251c39.662 0 71.136 32.125 71.136 71.787v285.767z" />
<glyph unicode="&#xe916;" glyph-name="newspaper" d="M997.685 802.244c-14.594 0-26.534-11.94-26.534-26.534v-704.261c0-74.517-60.586-134.882-134.882-134.882h-648.318c-74.517 0-134.882 60.586-134.882 134.882v759.762h776.788v-683.255c0-14.594 11.94-26.534 26.534-26.534s26.534 11.94 26.534 26.534v709.789c0 14.594-11.94 26.534-26.534 26.534h-829.856c-14.594 0-26.534-11.94-26.534-26.534v-786.075c0-103.704 84.246-187.95 187.95-187.95h648.097c103.704 0 187.95 84.246 187.95 187.95v704.040c0.221 14.594-11.719 26.534-26.313 26.534zM728.142 678.196c14.594 0 26.534 11.94 26.534 26.534s-11.94 26.534-26.534 26.534h-578.445c-14.594 0-26.534-11.94-26.534-26.534s11.94-26.534 26.534-26.534h578.445zM728.142 190.41h-578.445c-14.594 0-26.534-11.94-26.534-26.534s11.94-26.534 26.534-26.534h578.224c14.594 0 26.534 11.94 26.534 26.534s-11.719 26.534-26.313 26.534zM728.142 54.422h-486.681c-14.594 0-26.534-11.94-26.534-26.534s11.94-26.534 26.534-26.534h486.681c14.594 0 26.534 11.94 26.534 26.534s-11.94 26.534-26.534 26.534zM114.318 585.548v-287.011c0-14.594 11.94-26.534 26.534-26.534h288.117c14.594 0 26.534 11.94 26.534 26.534v287.011c0 14.594-11.94 26.534-26.534 26.534h-288.117c-14.594 0-26.534-11.94-26.534-26.534zM167.386 559.014h235.049v-233.943h-235.049v233.943zM742.293 585.548h-190.825c-14.594 0-26.534-11.94-26.534-26.534s11.94-26.534 26.534-26.534h190.825c14.594 0 26.534 11.94 26.534 26.534s-11.719 26.534-26.534 26.534zM742.293 465.702h-190.825c-14.594 0-26.534-11.94-26.534-26.534s11.94-26.534 26.534-26.534h190.825c14.594 0 26.534 11.94 26.534 26.534s-11.719 26.534-26.534 26.534zM768.828 311.804c0 14.594-11.94 26.534-26.534 26.534h-190.825c-14.594 0-26.534-11.94-26.534-26.534s11.94-26.534 26.534-26.534h190.825c14.815 0 26.534 11.94 26.534 26.534z" />
<glyph unicode="&#xe917;" glyph-name="fax" d="M662.554 23.995h-245.102c-9.121 0-16.516-7.395-16.516-16.516s7.395-16.516 16.516-16.516h245.102c9.121 0 16.516 7.395 16.516 16.516s-7.395 16.516-16.516 16.516zM662.554 90.059h-245.102c-9.121 0-16.516-7.395-16.516-16.516s7.395-16.516 16.516-16.516h245.102c9.121 0 16.516 7.395 16.516 16.516s-7.395 16.516-16.516 16.516zM662.554 156.124h-245.102c-9.121 0-16.516-7.395-16.516-16.516s7.395-16.516 16.516-16.516h245.102c9.121 0 16.516 7.395 16.516 16.516s-7.395 16.516-16.516 16.516zM662.554 333.879h-245.102c-9.121 0-16.516-7.395-16.516-16.516v-83.065c0-9.121 7.395-16.516 16.516-16.516h44.043c9.121 0 16.516 7.395 16.516 16.516s-7.395 16.516-16.516 16.516h-27.527v50.033h212.069v-50.033h-118.478c-9.121 0-16.516-7.395-16.516-16.516s7.395-16.516 16.516-16.516h134.994c9.121 0 16.516 7.395 16.516 16.516v83.065c0 9.121-7.395 16.516-16.516 16.516zM838.704 333.879c-49.916 0-90.524-40.61-90.524-90.524s40.61-90.524 90.524-90.524 90.524 40.61 90.524 90.524-40.61 90.524-90.524 90.524zM838.704 185.862c-31.702 0-57.492 25.792-57.492 57.492s25.792 57.492 57.492 57.492 57.492-25.792 57.492-57.492-25.792-57.492-57.492-57.492zM967.845 436.35h-31.931v205.062c0 9.121-7.395 16.516-16.516 16.516h-54.129v205.064c0 9.121-7.395 16.516-16.516 16.516h-372.399c-9.121 0-16.516-7.395-16.516-16.516v-205.064h-54.129c-9.121 0-16.516-7.395-16.516-16.516v-205.062h-57.798c-1.7 92.92-4.589 159.039-4.631 159.962-0.004 0.092-0.009 0.185-0.015 0.28-1.046 17.078-12.823 33.27-28.454 40.26-7.199 6.972-24.893 11.295-87.949 11.295s-80.751-4.323-87.949-11.295c-15.629-6.99-27.406-23.182-28.454-40.26-0.004-0.092-0.011-0.187-0.015-0.28-0.040-0.923-2.931-67.038-4.631-159.962h-33.14c-30.964 0-56.155-25.19-56.155-56.155v-435.55c0-30.964 25.19-56.155 56.155-56.155h911.69c30.964 0 56.155 25.19 56.155 56.155v435.55c0 30.964-25.19 56.155-56.155 56.155zM902.882 624.898v-188.546h-37.613v188.546h37.613zM492.87 846.478h339.367v-410.126h-339.367v410.126zM422.225 624.898h37.613v-188.546h-37.613v188.546zM126.921 594.678c0.377 5.010 5.622 11.319 10.469 12.554 2.869 0.731 5.442 2.207 7.494 4.222 5.461 1.246 21.685 3.66 65.463 3.66s60.002-2.414 65.463-3.66c2.052-2.017 4.627-3.49 7.494-4.222 4.847-1.235 10.092-7.545 10.467-12.557 0.238-5.488 5.715-133.219 5.803-282.305-0.088-149.103-5.563-276.837-5.803-282.325-0.374-5.010-5.622-11.321-10.469-12.557-2.869-0.731-5.442-2.207-7.494-4.222-5.461-1.246-21.685-3.66-65.463-3.66s-60.002 2.414-65.463 3.66c-2.052 2.017-4.625 3.49-7.494 4.222-4.847 1.235-10.092 7.545-10.469 12.554-0.238 5.488-5.712 133.182-5.8 282.309 0.088 149.103 5.563 276.837 5.803 282.325zM990.968-55.355c0-12.75-10.372-23.123-23.123-23.123h-911.69c-12.75 0-23.123 10.372-23.123 23.123v435.55c0 12.75 10.372 23.123 23.123 23.123h32.609c-0.401-28.736-0.661-59.37-0.678-90.966 0.090-152.415 5.785-282.644 5.842-283.941 0.004-0.092 0.009-0.187 0.015-0.28 1.048-17.078 12.825-33.268 28.454-40.26 7.199-6.972 24.893-11.295 87.949-11.295 63.061 0 80.753 4.323 87.949 11.295 15.629 6.992 27.406 23.182 28.452 40.26 0.007 0.092 0.011 0.185 0.015 0.28 0.057 1.297 5.752 131.528 5.842 283.961-0.018 31.588-0.28 62.215-0.678 90.947h635.917c12.75 0 23.123-10.372 23.123-23.123v-435.55zM577.347 514.107h85.206c9.121 0 16.516 7.395 16.516 16.516s-7.395 16.516-16.516 16.516h-85.206c-9.121 0-16.516-7.395-16.516-16.516s7.395-16.516 16.516-16.516zM577.347 624.898h170.411c9.121 0 16.516 7.395 16.516 16.516s-7.395 16.516-16.516 16.516h-170.411c-9.121 0-16.516-7.395-16.516-16.516s7.395-16.516 16.516-16.516zM577.347 735.686h170.411c9.121 0 16.516 7.395 16.516 16.516s-7.395 16.516-16.516 16.516h-170.411c-9.121 0-16.516-7.395-16.516-16.516s7.395-16.516 16.516-16.516z" />
<glyph unicode="&#xe918;" glyph-name="placeholder" d="M515.338 671.59c-72.166 0-130.906-58.739-130.906-130.906s58.739-130.906 130.906-130.906 130.906 58.739 130.906 130.906-58.739 130.906-130.906 130.906zM515.338 447.181c-51.558 0-93.504 41.946-93.504 93.504s41.946 93.504 93.504 93.504 93.504-41.946 93.504-93.504-41.946-93.504-93.504-93.504zM765.611 790.958c-67.734 67.734-157.797 105.042-253.583 105.042-95.804 0-185.849-37.308-253.583-105.042-125.351-125.333-140.929-361.15-33.736-504.024l287.319-414.933 286.889 414.354c107.623 143.454 92.045 379.271-33.306 504.604zM768.584 308.215l-256.556-370.5-256.968 371.080c-97.225 129.634-83.293 342.599 29.846 455.72 60.665 60.665 141.322 94.084 227.121 94.084s166.456-33.418 227.14-94.084c113.14-113.121 127.072-326.086 29.416-456.3z" />
<glyph unicode="&#xe919;" glyph-name="linkedin-logo" d="M1024 273.332v-378.579h-219.476v353.224c0 88.733-31.745 149.29-111.188 149.29-60.645 0-96.735-40.811-112.612-80.288-5.79-14.113-7.28-33.757-7.28-53.512v-368.714h-219.55c0 0 2.957 598.246 0 660.229h219.529v-93.585c-0.445-0.7-1.024-1.455-1.443-2.133h1.443v2.133c29.167 44.922 81.255 109.095 197.845 109.095 144.447 0.002 252.733-94.363 252.733-297.16zM124.235 873.245c-75.108 0-124.235-49.265-124.235-114.050 0-63.373 47.705-114.133 121.321-114.133h1.467c76.562 0 124.177 50.75 124.177 114.133-1.443 64.785-47.615 114.050-122.73 114.050zM13.039-105.247h219.467v660.229h-219.467v-660.229z" />
<glyph unicode="&#xe91a;" glyph-name="facebook-logo-1" d="M767.965 895.787l-132.79 0.213c-149.185 0-245.595-98.913-245.595-252.008v-116.192h-133.514c-11.537 0-20.88-9.353-20.88-20.891v-168.35c0-11.537 9.353-20.88 20.88-20.88h133.514v-424.8c0-11.537 9.343-20.88 20.88-20.88h174.198c11.537 0 20.88 9.353 20.88 20.88v424.8h156.109c11.537 0 20.88 9.343 20.88 20.88l0.064 168.35c0 5.54-2.205 10.845-6.115 14.765s-9.236 6.125-14.776 6.125h-156.163v98.498c0 47.342 11.282 71.375 72.952 71.375l89.453 0.032c11.527 0 20.869 9.353 20.869 20.88v156.322c0 11.516-9.332 20.859-20.848 20.88z" />
<glyph unicode="&#xe91b;" glyph-name="summary" d="M864 896h-704c-26.468 0-48-21.532-48-48v-928c0-26.466 21.532-48 48-48h704c26.468 0 48 21.534 48 48v928c0 26.468-21.532 48-48 48zM160 864h704c8.822 0 16-7.178 16-16v-400h-736v400c0 8.822 7.178 16 16 16zM864-96h-704c-8.822 0-16 7.178-16 16v496h736v-496c0-8.822-7.178-16-16-16zM336 624c44.112 0 80 35.888 80 80v16c0 44.112-35.888 80-80 80s-80-35.888-80-80v-16c0-44.112 35.888-80 80-80zM288 720c0 26.468 21.532 48 48 48s48-21.532 48-48v-16c0-26.468-21.532-48-48-48s-48 21.532-48 48v16zM237.344 496h197.378c16.142 0 29.276 13.134 29.276 29.278v34.722c0 13.928-6.488 29.514-17.356 41.694-12.536 14.046-29.048 21.782-46.5 21.782h-13.58c-5.556 0-10.714-2.882-13.626-7.616-9.33-15.162-22.792-23.86-36.936-23.86s-27.606 8.698-36.938 23.86c-2.912 4.732-8.070 7.616-13.626 7.616h-13.58c-35.962 0-63.856-34.122-63.856-63.476v-34.656c0-16.18 13.164-29.344 29.344-29.344zM240 560c0 10.808 12.406 31.476 31.856 31.476h5.136c15.14-20.118 36.232-31.476 59.008-31.476s43.868 11.358 59.006 31.476h5.136c19.45 0 31.856-20.668 31.856-31.476v-32h-192v32zM512 752h176c8.836 0 16 7.164 16 16s-7.164 16-16 16h-176c-8.836 0-16-7.164-16-16s7.164-16 16-16zM512 624h48c8.836 0 16 7.164 16 16s-7.164 16-16 16h-48c-8.836 0-16-7.164-16-16s7.164-16 16-16zM672 656h-48c-8.836 0-16-7.164-16-16s7.164-16 16-16h48c8.836 0 16 7.164 16 16s-7.164 16-16 16zM784 656h-48c-8.836 0-16-7.164-16-16s7.164-16 16-16h48c8.836 0 16 7.164 16 16s-7.164 16-16 16zM512 688h272c8.836 0 16 7.164 16 16s-7.164 16-16 16h-272c-8.836 0-16-7.164-16-16s7.164-16 16-16zM224 336h32c8.836 0 16 7.164 16 16s-7.164 16-16 16h-32c-8.836 0-16-7.164-16-16s7.164-16 16-16zM800 368h-464c-8.836 0-16-7.164-16-16s7.164-16 16-16h464c8.836 0 16 7.164 16 16s-7.164 16-16 16zM224 272h32c8.836 0 16 7.164 16 16s-7.164 16-16 16h-32c-8.836 0-16-7.164-16-16s7.164-16 16-16zM800 304h-464c-8.836 0-16-7.164-16-16s7.164-16 16-16h464c8.836 0 16 7.164 16 16s-7.164 16-16 16zM608 208h-384c-8.836 0-16-7.164-16-16s7.164-16 16-16h384c8.836 0 16 7.164 16 16s-7.164 16-16 16zM544 80h-320c-8.836 0-16-7.164-16-16s7.164-16 16-16h320c8.836 0 16 7.164 16 16s-7.164 16-16 16zM224 112h256c8.836 0 16 7.164 16 16s-7.164 16-16 16h-256c-8.836 0-16-7.164-16-16s7.164-16 16-16zM400 16h-176c-8.836 0-16-7.164-16-16s7.164-16 16-16h176c8.836 0 16 7.164 16 16s-7.164 16-16 16zM800 16h-64c-8.836 0-16-7.164-16-16s7.164-16 16-16h64c8.836 0 16 7.164 16 16s-7.164 16-16 16zM800 80h-32c-8.836 0-16-7.164-16-16s7.164-16 16-16h32c8.836 0 16 7.164 16 16s-7.164 16-16 16z" />
<glyph unicode="&#xe91c;" glyph-name="calendar-1" d="M972.8 827.733h-119.467v51.2c0 9.438-7.629 17.067-17.067 17.067h-119.467c-9.438 0-17.067-7.629-17.067-17.067v-51.2h-375.467v51.2c0 9.438-7.629 17.067-17.067 17.067h-119.467c-9.438 0-17.067-7.629-17.067-17.067v-51.2h-119.467c-9.438 0-17.067-7.629-17.067-17.067v-921.6c0-9.438 7.629-17.067 17.067-17.067h921.6c9.438 0 17.067 7.629 17.067 17.067v921.6c0 9.438-7.629 17.067-17.067 17.067zM733.867 861.867h85.333v-102.4h-85.333v102.4zM204.8 861.867h85.333v-102.4h-85.333v102.4zM68.267 793.6h102.4v-51.2c0-9.438 7.629-17.067 17.067-17.067h119.467c9.438 0 17.067 7.629 17.067 17.067v51.2h375.467v-51.2c0-9.438 7.629-17.067 17.067-17.067h119.467c9.438 0 17.067 7.629 17.067 17.067v51.2h102.4v-153.6h-887.467v153.6zM68.267-93.867v699.733h887.467v-699.733h-887.467zM648.533 503.467h-460.8v-494.933h648.533v494.933h-187.733zM529.067 469.333h119.467v-119.467h-119.467v119.467zM648.533 196.267h-119.467v119.467h119.467v-119.467zM375.467 315.733h119.467v-119.467h-119.467v119.467zM375.467 469.333h119.467v-119.467h-119.467v119.467zM221.867 469.333h119.467v-119.467h-119.467v119.467zM221.867 315.733h119.467v-119.467h-119.467v119.467zM341.333 42.667h-119.467v119.467h119.467v-119.467zM494.933 42.667h-119.467v119.467h119.467v-119.467zM648.533 42.667h-119.467v119.467h119.467v-119.467zM802.133 42.667h-119.467v119.467h119.467v-119.467zM802.133 196.267h-119.467v119.467h119.467v-119.467zM802.133 469.333v-119.467h-119.467v119.467h119.467z" />
<glyph unicode="&#xe91d;" glyph-name="valentines-heart" d="M1024 550.992c0 152.723-123.808 276.525-276.532 276.525-99.725 0-186.817-52.962-235.471-132.113-48.648 79.151-135.777 132.113-235.501 132.113-152.723 0-276.496-123.802-276.496-276.525 0-83.149 36.846-157.539 94.916-208.196l391.846-391.863c6.692-6.692 15.768-10.452 25.234-10.452s18.542 3.76 25.234 10.452l391.846 391.863c58.073 50.658 94.923 125.047 94.923 208.196z" />
<glyph unicode="&#xe91e;" glyph-name="check-sign-in-a-rounded-black-square" d="M967.665 839.672c-37.54 37.55-82.77 56.328-135.654 56.328h-640.005c-52.884 0-98.114-18.778-135.671-56.328-37.55-37.557-56.328-82.784-56.328-135.671v-639.998c0-52.882 18.778-98.114 56.328-135.671 37.557-37.557 82.787-56.335 135.671-56.335h639.998c52.884 0 98.114 18.778 135.654 56.335 37.557 37.557 56.335 82.787 56.335 135.671v639.998c-0.002 52.886-18.781 98.121-56.328 135.671zM866.020 524.672l-409.349-409.333c-8.441-8.439-18.442-12.675-30.005-12.675-11.558 0-21.559 4.219-30.005 12.658l-238.665 238.672c-8.444 8.453-12.665 18.442-12.665 30.001 0 11.556 4.224 21.559 12.665 29.998l68.006 68.006c8.446 8.444 18.435 12.665 29.998 12.665s21.564-4.224 30.008-12.665l140.668-140.663 311.34 311.338c8.42 8.446 18.442 12.665 29.998 12.665 11.547 0 21.545-4.219 29.998-12.665l68.010-68.008c8.43-8.441 12.658-18.442 12.658-29.998s-4.231-21.559-12.661-29.996z" />
<glyph unicode="&#xe91f;" glyph-name="check-box-empty" d="M962.539 834.544c-40.97 40.97-90.309 61.456-147.999 61.456h-605.085c-57.691 0-107.026-20.485-148.002-61.456-40.963-40.975-61.448-90.301-61.448-148.002v-605.088c0-57.688 20.485-107.021 61.448-147.999 40.975-40.973 90.311-61.458 148.002-61.458h605.085c57.691 0 107.014 20.485 148.002 61.458 40.973 40.978 61.456 90.309 61.456 147.999v605.088c-0.010 57.691-20.495 107.026-61.458 148.002zM930.897 81.455c0-31.991-11.386-59.387-34.172-82.185-22.785-22.785-50.176-34.162-82.188-34.162h-605.083c-32.001 0-59.395 11.376-82.185 34.162-22.785 22.796-34.179 50.194-34.179 82.185v605.088c0 31.999 11.394 59.392 34.179 82.185 22.79 22.788 50.184 34.179 82.185 34.179h605.085c32.009 0 59.4-11.394 82.188-34.179 22.785-22.79 34.172-50.184 34.172-82.185v-605.088h-0.003z" />
<glyph unicode="&#xe920;" glyph-name="checked" d="M11.815 344.615c-7.877 7.877-11.815 19.692-11.815 27.569s3.938 19.692 11.815 27.569l55.138 55.138c15.754 15.754 39.385 15.754 55.138 0l3.938-3.938 216.615-232.369c7.877-7.877 19.692-7.877 27.569 0l527.754 547.446h3.938c15.754 15.754 39.385 15.754 55.138 0l55.138-55.138c15.754-15.754 15.754-39.385 0-55.138v0l-630.154-653.785c-7.877-7.877-15.754-11.815-27.569-11.815s-19.692 3.938-27.569 11.815l-307.2 330.831-7.877 11.815z" />
<glyph unicode="&#xe921;" glyph-name="linkedin-1" d="M120.138 885.038c-69.605 0-120.138-48.015-120.138-114.122 0-66.085 49.53-114.055 117.731-114.055 35.382 0 65.862 11.475 88.165 33.176 21.389 20.832 33.176 49.552 33.154 81.392-1.56 66.887-50.466 113.609-118.912 113.609zM174.837 721.965c-13.814-13.435-33.577-20.543-57.106-20.543-43.069 0-73.17 28.564-73.17 69.494 0 41.598 30.369 69.56 75.576 69.56 44.183 0 73.37-27.517 74.373-69.583-0.022-19.206-6.996-36.563-19.674-48.928zM21.367-117.038h200.259v736.267h-200.259v-736.267zM65.929 574.667h111.136v-647.121h-111.136v647.121zM749.702 619.229c-92.866 0-149.726-32.062-182.657-62.208l-6.261 62.208h-226.573v-736.244h221.894v386.949c0 16.666 6.751 51.268 10.984 60.403 26.804 57.729 62.965 57.729 117.731 57.729 63.077 0 116.372-59.155 116.372-129.161v-375.965h222.807v415.981c0 220.089-142.196 320.308-274.298 320.308zM979.439-72.476h-133.684v331.404c0 94.181-73.705 173.723-160.934 173.723-55.969 0-119.38 0-158.171-83.553-7.999-17.268-15.129-58.643-15.129-79.163v-342.41h-132.749v647.144h141.705l9.091-90.103h36.518l6.528 10.539c14.861 23.93 61.851 79.587 177.087 79.587 110.646 0 229.737-86.271 229.737-275.702v-371.464z" />
<glyph unicode="&#xe922;" glyph-name="user-1" d="M1024 384c0 282.307-229.693 512-512 512s-512-229.693-512-512c0-149.113 64.121-283.518 166.186-377.167l-0.484-0.428 16.607-14.001c1.080-0.912 2.253-1.657 3.333-2.551 8.825-7.317 17.967-14.262 27.276-20.983 3.016-2.178 6.032-4.357 9.104-6.479 9.942-6.851 20.145-13.349 30.571-19.512 2.271-1.341 4.561-2.644 6.851-3.947 11.413-6.498 23.068-12.623 35.002-18.246 0.875-0.41 1.769-0.782 2.644-1.192 38.893-18.078 80.412-31.353 123.83-39.191 1.136-0.205 2.271-0.41 3.426-0.614 13.48-2.327 27.108-4.189 40.904-5.437 1.676-0.149 3.351-0.242 5.046-0.391 13.74-1.136 27.629-1.862 41.705-1.862 13.945 0 27.704 0.726 41.37 1.825 1.731 0.149 3.463 0.242 5.194 0.391 13.684 1.247 27.201 3.053 40.55 5.343 1.154 0.205 2.327 0.41 3.482 0.633 42.766 7.671 83.689 20.648 122.079 38.26 1.415 0.652 2.849 1.266 4.264 1.936 11.487 5.399 22.714 11.227 33.718 17.427 2.737 1.545 5.455 3.109 8.173 4.71 10.017 5.902 19.866 12.065 29.435 18.618 3.444 2.346 6.814 4.822 10.221 7.28 8.173 5.883 16.198 11.953 23.999 18.302 1.731 1.396 3.593 2.607 5.288 4.040l17.036 14.224-0.503 0.428c102.959 93.687 167.694 228.706 167.694 378.582zM37.236 384c0 261.79 212.973 474.764 474.764 474.764s474.764-212.973 474.764-474.764c0-141.070-61.905-267.897-159.912-354.918-5.474 3.779-10.985 7.168-16.626 9.998l-157.64 78.811c-14.15 7.075-22.938 21.299-22.938 37.106v55.054c3.649 4.506 7.503 9.607 11.487 15.211 20.406 28.821 36.771 60.881 48.705 95.381 23.589 11.208 38.819 34.704 38.819 61.235v66.001c0 16.142-5.921 31.8-16.514 44.106v86.891c0.968 9.663 4.394 64.195-35.058 109.177-34.313 39.173-89.851 59.001-165.087 59.001s-130.774-19.828-165.087-58.982c-39.452-44.982-36.026-99.514-35.058-109.177v-86.891c-10.575-12.307-16.514-27.965-16.514-44.106v-66.001c0-20.499 9.197-39.619 24.948-52.522 15.081-59.075 46.117-103.796 57.586-118.952v-53.881c0-15.192-8.285-29.156-21.634-36.454l-147.214-80.3c-4.692-2.551-9.346-5.53-14.001-8.862-96.796 86.984-157.789 213.029-157.789 353.075zM790.509-0.13c-6.516-4.729-13.144-9.309-19.866-13.684-3.091-2.011-6.163-4.022-9.309-5.976-8.788-5.437-17.725-10.612-26.847-15.453-2.011-1.061-4.040-2.067-6.070-3.109-20.964-10.743-42.654-19.977-64.94-27.48-0.782-0.261-1.564-0.54-2.365-0.801-11.674-3.873-23.496-7.317-35.449-10.277-0.037 0-0.074-0.019-0.112-0.019-12.065-2.979-24.278-5.455-36.566-7.485-0.335-0.056-0.67-0.13-1.005-0.186-11.562-1.88-23.217-3.24-34.909-4.264-2.067-0.186-4.133-0.317-6.218-0.465-11.562-0.875-23.18-1.434-34.853-1.434-11.804 0-23.571 0.577-35.281 1.452-2.029 0.149-4.059 0.279-6.070 0.465-11.804 1.043-23.552 2.439-35.188 4.338-0.521 0.093-1.043 0.186-1.564 0.279-24.613 4.115-48.835 10.166-72.425 18.078-0.726 0.242-1.471 0.503-2.197 0.745-11.711 3.984-23.291 8.397-34.667 13.275-0.074 0.037-0.168 0.074-0.242 0.112-10.761 4.636-21.318 9.775-31.744 15.192-1.359 0.707-2.737 1.378-4.077 2.104-9.514 5.083-18.823 10.575-28.002 16.31-2.718 1.713-5.418 3.444-8.099 5.194-8.453 5.53-16.794 11.283-24.911 17.371-0.838 0.633-1.638 1.303-2.476 1.936 0.596 0.335 1.192 0.67 1.787 1.005l147.214 80.3c25.321 13.815 41.053 40.308 41.053 69.148l-0.019 67.063-4.282 5.176c-0.41 0.465-40.662 49.431-55.873 115.731l-1.694 7.373-6.349 4.115c-8.955 5.79-14.317 15.472-14.317 25.917v66.001c0 8.657 3.668 16.719 10.37 22.77l6.144 5.548v103.703l-0.168 2.439c-0.056 0.447-5.548 45.224 25.991 81.175 26.922 30.683 73.058 46.266 137.086 46.266 63.786 0 109.773-15.453 136.769-45.912 31.502-35.579 26.345-81.194 26.307-81.566l-0.168-106.142 6.144-5.548c6.684-6.032 10.37-14.113 10.37-22.77v-66.001c0-13.275-9.030-25.321-21.988-29.324l-9.253-2.849-2.979-9.216c-10.985-34.127-26.624-65.648-46.471-93.687-4.878-6.889-9.626-12.995-13.703-17.669l-4.617-5.269v-68.869c0-30.013 16.682-57.009 43.529-70.414l157.64-78.811c1.005-0.503 1.992-1.024 2.979-1.545-1.992-1.508-4.040-2.904-6.051-4.357z" />
<glyph unicode="&#xe923;" glyph-name="star-1" d="M946.199 561.681l-249.778 17.946c-5.217 0.417-9.807 3.547-11.686 8.555l-95.154 231.624c-13.146 31.927-42.777 51.75-77.417 51.75s-64.062-19.824-77.417-51.959l-95.362-231.832c-2.087-4.799-6.469-8.138-11.686-8.555l-249.361-17.946c-33.805-1.878-62.601-23.997-73.661-56.55-11.268-32.97-1.878-67.609 24.832-90.354l193.020-159.424c3.965-3.339 5.843-8.764 4.591-13.772l-58.845-240.805c-6.886-25.040-2.087-50.915 13.146-71.156 15.65-20.45 40.065-32.761 65.731-32.761 15.859 0 31.3 4.799 44.029 13.355l210.965 131.253c4.382 2.713 10.016 2.713 14.398 0l213.052-130.836c13.355-8.973 28.796-13.772 44.447-13.772 23.997 0 47.785 11.477 63.227 30.883 16.068 20.032 21.91 46.116 16.068 72.2l-59.054 241.431c-1.252 5.217 0.626 10.642 4.591 13.981l195.941 159.841c26.292 22.536 35.683 57.176 24.623 90.145-10.851 32.553-39.856 54.88-73.243 56.758zM962.267 454.216l-195.524-159.633c-19.198-15.65-27.962-41.525-21.91-65.731l59.054-241.014c3.13-14.19-2.504-23.997-6.26-28.588-5.843-7.303-14.607-11.894-23.371-11.894-5.425 0-10.851 1.669-16.694 5.634l-213.887 131.462c-10.225 6.26-21.91 9.599-34.013 9.599s-23.997-3.339-34.222-9.807l-211.8-131.671c-13.564-8.973-31.718-5.008-41.317 7.512-3.965 5.217-8.138 14.19-4.382 27.336l59.054 241.64c5.843 23.997-2.713 49.663-21.702 65.314l-192.602 159.215c-15.233 13.146-11.060 30.048-9.39 34.848s8.555 20.867 28.588 21.91l249.778 17.946c24.623 1.878 45.907 17.111 55.298 40.065l95.362 231.832c7.721 18.78 25.040 20.241 30.048 20.241s22.328-1.461 30.048-20.241l95.362-231.832c9.39-22.954 30.674-38.187 55.298-40.065l250.195-18.154c19.615-1.043 26.501-17.111 28.17-21.91 1.252-4.382 5.425-21.284-9.181-34.013z" />
<glyph unicode="&#xe924;" glyph-name="upload" d="M832.803 610.046c-10.95 65.066-43.167 124.447-92.44 169.509-54.748 50.116-125.921 77.7-200.041 77.7-57.275 0-113.076-16.424-160.875-47.378-39.798-25.689-72.857-60.433-96.23-101.284-10.107 1.895-20.636 2.948-31.164 2.948-89.492 0-162.349-72.857-162.349-162.349 0-11.581 1.263-22.742 3.369-33.691-57.907-42.114-93.072-109.917-93.072-182.143 0-58.328 21.689-114.971 61.276-159.822 40.64-45.904 94.335-73.068 151.61-76.226 0.632 0 1.053 0 1.685 0h181.090c15.793 0 28.427 12.634 28.427 28.427s-12.634 28.427-28.427 28.427h-180.248c-86.123 5.264-158.559 87.176-158.559 179.405 0 59.591 32.007 115.182 83.596 145.293 12.002 6.949 17.056 21.478 12.424 34.533-4.211 11.371-6.317 23.373-6.317 36.218 0 58.117 47.378 105.495 105.495 105.495 12.424 0 24.637-2.106 36.007-6.317 13.898-5.054 29.269 1.263 35.586 14.529 39.377 83.596 124.447 137.502 216.887 137.502 124.236 0 226.783-93.072 238.575-216.466 1.263-12.845 10.95-23.163 23.584-25.268 93.703-16.003 164.455-102.547 164.455-201.305 0-104.653-82.333-195.619-183.827-203.41h-155.19c-15.793 0-28.427-12.634-28.427-28.427s12.634-28.427 28.427-28.427h156.243c0.632 0 1.263 0 2.106 0 64.224 4.633 124.236 34.112 168.877 83.386 44.43 48.852 68.646 111.602 68.646 176.878-0.211 118.13-80.859 223.204-191.197 252.262zM682.667 306.405c11.16 11.16 11.16 29.059 0 40.219l-150.557 150.557c-5.264 5.264-12.634 8.423-20.004 8.423s-14.74-2.948-20.004-8.423l-150.557-150.557c-11.16-11.16-11.16-29.059 0-40.219 5.475-5.475 12.845-8.423 20.004-8.423s14.529 2.737 20.004 8.423l102.126 102.126v-469.36c0-15.793 12.634-28.427 28.427-28.427s28.427 12.634 28.427 28.427v469.36l102.126-102.126c10.95-11.16 28.848-11.16 40.008 0z" />
<glyph unicode="&#xe925;" glyph-name="plus" d="M512 896c-282.309 0-512-229.671-512-512s229.691-512 512-512 512 229.671 512 512-229.691 512-512 512zM512-88.615c-260.588 0-472.615 212.027-472.615 472.615s212.027 472.615 472.615 472.615 472.615-212.027 472.615-472.615-212.027-472.615-472.615-472.615zM758.154 403.692h-226.462v216.615c0 10.89-8.822 19.692-19.692 19.692s-19.692-8.802-19.692-19.692v-216.615h-226.462c-10.87 0-19.692-8.802-19.692-19.692s8.822-19.692 19.692-19.692h226.462v-236.308c0-10.89 8.822-19.692 19.692-19.692s19.692 8.802 19.692 19.692v236.308h226.462c10.87 0 19.692 8.802 19.692 19.692s-8.822 19.692-19.692 19.692z" />
<glyph unicode="&#xe926;" glyph-name="credit-card-1" d="M952.030 759.467h-880.060c-39.68 0-71.97-32.29-71.97-71.97v-606.993c0-39.68 32.29-71.97 71.97-71.97h880.060c39.68 0 71.97 32.29 71.97 71.97v606.993c0 39.68-32.29 71.97-71.97 71.97zM989.867 80.503c0-20.855-16.964-37.837-37.837-37.837h-880.060c-20.873 0-37.837 16.981-37.837 37.837v606.993c0 20.855 16.964 37.837 37.837 37.837h880.060c20.873 0 37.837-16.981 37.837-37.837v-606.993zM273.067 264.533h-153.6c-9.438 0-17.067-7.646-17.067-17.067s7.629-17.067 17.067-17.067h153.6c9.438 0 17.067 7.646 17.067 17.067s-7.629 17.067-17.067 17.067zM494.933 264.533h-153.6c-9.438 0-17.067-7.646-17.067-17.067s7.629-17.067 17.067-17.067h153.6c9.438 0 17.067 7.646 17.067 17.067s-7.629 17.067-17.067 17.067zM136.533 179.2h-17.067c-9.438 0-17.067-7.646-17.067-17.067s7.629-17.067 17.067-17.067h17.067c9.438 0 17.067 7.646 17.067 17.067s-7.629 17.067-17.067 17.067zM238.933 179.2h-34.133c-9.438 0-17.067-7.646-17.067-17.067s7.629-17.067 17.067-17.067h34.133c9.438 0 17.067 7.646 17.067 17.067s-7.629 17.067-17.067 17.067zM324.267 179.2h-17.067c-9.438 0-17.067-7.646-17.067-17.067s7.629-17.067 17.067-17.067h17.067c9.438 0 17.067 7.646 17.067 17.067s-7.629 17.067-17.067 17.067zM426.667 179.2h-34.133c-9.438 0-17.067-7.646-17.067-17.067s7.629-17.067 17.067-17.067h34.133c9.438 0 17.067 7.646 17.067 17.067s-7.629 17.067-17.067 17.067zM482.816 174.251c-3.089-3.243-4.949-7.68-4.949-12.117s1.86-8.875 4.949-12.117c3.226-3.072 7.68-4.949 12.117-4.949s8.875 1.877 12.117 4.949c3.072 3.243 4.949 7.68 4.949 12.117s-1.877 8.875-4.949 12.117c-6.485 6.315-18.108 6.315-24.235 0zM819.2 332.8c-21.777 0-42.138-5.956-59.733-16.162-17.596 10.206-37.956 16.162-59.733 16.162-65.86 0-119.467-53.589-119.467-119.467s53.606-119.467 119.467-119.467c21.777 0 42.138 5.956 59.733 16.162 17.596-10.206 37.956-16.162 59.733-16.162 65.86 0 119.467 53.589 119.467 119.467s-53.606 119.467-119.467 119.467zM785.067 213.333c0-23.791-9.83-45.295-25.6-60.791-15.77 15.497-25.6 37.001-25.6 60.791s9.83 45.295 25.6 60.791c15.77-15.497 25.6-37.001 25.6-60.791zM614.4 213.333c0 47.053 38.281 85.333 85.333 85.333 10.769 0 20.992-2.219 30.498-5.888-18.893-21.129-30.498-48.93-30.498-79.445s11.605-58.317 30.498-79.445c-9.506-3.669-19.729-5.888-30.498-5.888-47.053 0-85.333 38.281-85.333 85.333zM819.2 128c-10.769 0-20.992 2.219-30.498 5.888 18.893 21.129 30.498 48.93 30.498 79.445s-11.605 58.317-30.498 79.445c9.506 3.669 19.729 5.888 30.498 5.888 47.053 0 85.333-38.281 85.333-85.333s-38.281-85.333-85.333-85.333zM140.885 384h230.229c21.214 0 38.485 17.271 38.485 38.485v161.963c0 21.214-17.271 38.485-38.485 38.485h-230.229c-21.214 0-38.485-17.271-38.485-38.485v-161.963c0-21.214 17.271-38.485 38.485-38.485zM204.8 486.4h-68.267v34.133h68.267v-34.133zM136.533 422.485v29.781h68.267v-29.781c0-1.485 0.273-2.901 0.444-4.352h-64.358c-2.406 0-4.352 1.946-4.352 4.352zM375.467 486.4h-68.267v29.781c0 2.406 1.946 4.352 4.352 4.352h59.563c1.485 0 2.901 0.273 4.352 0.444v-34.577zM371.115 418.133h-64.358c0.171 1.451 0.444 2.867 0.444 4.352v29.781h68.267v-29.781c0-2.406-1.946-4.352-4.352-4.352zM371.115 588.8c2.406 0 4.352-1.946 4.352-4.352v-25.429c0-2.406-1.946-4.352-4.352-4.352h-59.563c-21.214 0-38.485-17.271-38.485-38.485v-93.696c0-2.406-1.946-4.352-4.352-4.352h-25.429c-2.406 0-4.352 1.946-4.352 4.352v161.963c0 2.406 1.946 4.352 4.352 4.352h127.829zM140.885 588.8h64.358c-0.171-1.451-0.444-2.867-0.444-4.352v-29.781h-68.267v29.781c0 2.406 1.946 4.352 4.352 4.352z" />
<glyph unicode="&#xe927;" glyph-name="star" d="M1001.773 429.93c20.156 19.643 27.271 48.473 18.577 75.272-8.714 26.8-31.413 45.93-59.299 49.99l-247.942 36.027c-10.56 1.538-19.684 8.161-24.4 17.736l-110.848 224.648c-12.446 25.241-37.708 40.927-65.861 40.927-28.132 0-53.394-15.686-65.84-40.927l-110.868-224.669c-4.716-9.576-13.861-16.199-24.421-17.736l-247.942-36.027c-27.866-4.039-50.585-23.191-59.299-49.99-8.694-26.8-1.579-55.629 18.577-75.272l179.395-174.863c7.648-7.464 11.155-18.208 9.35-28.706l-42.322-246.916c-3.752-21.735 1.948-42.875 16.014-59.545 21.858-25.979 60.017-33.894 90.528-17.86l221.737 116.589c9.268 4.86 20.935 4.819 30.183 0l221.757-116.589c10.785-5.68 22.289-8.55 34.161-8.55 21.673 0 42.219 9.637 56.347 26.41 14.087 16.67 19.766 37.852 16.014 59.545l-42.342 246.916c-1.804 10.519 1.702 21.243 9.35 28.706l179.395 174.884z" />
<glyph unicode="&#xe928;" glyph-name="right-arrow-1" d="M689.55 733.181c-13.95 14.438-37.168 14.438-51.606 0-13.95-13.95-13.95-37.168 0-51.086l261.674-261.674h-863.49c-20.129-0.033-36.128-16.032-36.128-36.16s15.999-36.648 36.128-36.648h863.49l-261.674-261.187c-13.95-14.438-13.95-37.689 0-51.606 14.438-14.438 37.689-14.438 51.606 0l323.622 323.622c14.438 13.95 14.438 37.168 0 51.086l-323.622 323.654z" />
<glyph unicode="&#xe929;" glyph-name="credit-card" d="M819.2 657.067c-21.777 0-42.138-5.956-59.733-16.162-17.596 10.206-37.956 16.162-59.733 16.162-65.86 0-119.467-53.589-119.467-119.467s53.606-119.467 119.467-119.467c21.777 0 42.138 5.956 59.733 16.162 17.596-10.206 37.956-16.162 59.733-16.162 65.86 0 119.467 53.589 119.467 119.467s-53.606 119.467-119.467 119.467zM785.067 537.6c0-23.791-9.83-45.295-25.6-60.791-15.77 15.497-25.6 37.001-25.6 60.791s9.83 45.295 25.6 60.791c15.77-15.497 25.6-37.001 25.6-60.791zM614.4 537.6c0 47.053 38.281 85.333 85.333 85.333 10.769 0 20.992-2.219 30.498-5.888-18.893-21.129-30.498-48.93-30.498-79.445s11.605-58.317 30.498-79.445c-9.506-3.669-19.729-5.888-30.498-5.888-47.053 0-85.333 38.281-85.333 85.333zM819.2 452.267c-10.769 0-20.992 2.219-30.498 5.888 18.893 21.129 30.498 48.93 30.498 79.445s-11.605 58.317-30.498 79.445c9.506 3.669 19.729 5.888 30.498 5.888 47.053 0 85.333-38.281 85.333-85.333s-38.281-85.333-85.333-85.333zM952.030 759.467h-880.060c-39.68 0-71.97-32.29-71.97-71.97v-606.993c0-39.68 32.29-71.97 71.97-71.97h880.060c39.68 0 71.97 32.29 71.97 71.97v606.993c0 39.68-32.29 71.97-71.97 71.97zM989.867 80.503c0-20.855-16.964-37.837-37.837-37.837h-880.060c-20.873 0-37.837 16.981-37.837 37.837v606.993c0 20.855 16.964 37.837 37.837 37.837h880.060c20.873 0 37.837-16.981 37.837-37.837v-606.993zM102.4 588.8h153.6c9.438 0 17.067 7.646 17.067 17.067s-7.629 17.067-17.067 17.067h-153.6c-9.438 0-17.067-7.646-17.067-17.067s7.629-17.067 17.067-17.067zM477.867 622.933h-153.6c-9.438 0-17.067-7.646-17.067-17.067s7.629-17.067 17.067-17.067h153.6c9.438 0 17.067 7.646 17.067 17.067s-7.629 17.067-17.067 17.067zM102.4 503.467h17.067c9.438 0 17.067 7.646 17.067 17.067s-7.629 17.067-17.067 17.067h-17.067c-9.438 0-17.067-7.646-17.067-17.067s7.629-17.067 17.067-17.067zM187.733 537.6c-9.438 0-17.067-7.646-17.067-17.067s7.629-17.067 17.067-17.067h34.133c9.438 0 17.067 7.646 17.067 17.067s-7.629 17.067-17.067 17.067h-34.133zM324.267 520.533c0 9.421-7.629 17.067-17.067 17.067h-17.067c-9.438 0-17.067-7.646-17.067-17.067s7.629-17.067 17.067-17.067h17.067c9.438 0 17.067 7.646 17.067 17.067zM409.6 503.467c9.438 0 17.067 7.646 17.067 17.067s-7.629 17.067-17.067 17.067h-34.133c-9.438 0-17.067-7.646-17.067-17.067s7.629-17.067 17.067-17.067h34.133zM465.92 532.651c-3.26-3.243-5.12-7.509-5.12-12.117s1.86-8.875 4.949-12.117c3.226-3.072 7.68-4.949 12.117-4.949s8.875 1.877 12.117 4.949c3.072 3.243 4.949 7.68 4.949 12.117s-1.877 8.875-4.949 11.947c-6.315 6.485-17.92 6.485-24.064 0.171zM85.333 128h187.733v136.533h-187.733v-136.533zM119.467 230.4h119.467v-68.267h-119.467v68.267zM307.2 128h187.733v136.533h-187.733v-136.533zM341.333 230.4h119.467v-68.267h-119.467v68.267zM529.067 128h187.733v136.533h-187.733v-136.533zM563.2 230.4h119.467v-68.267h-119.467v68.267zM750.933 128h187.733v136.533h-187.733v-136.533zM785.067 230.4h119.467v-68.267h-119.467v68.267z" />
<glyph unicode="&#xe92a;" glyph-name="time" d="M980.634 399.736c-8.28 0-14.992-6.712-14.992-14.992v-451.836c0-17.052-13.872-30.924-30.924-30.924h-687.918c-8.28 0-14.992-6.712-14.992-14.992s6.712-14.992 14.992-14.992h687.918c33.586 0 60.908 27.324 60.908 60.91v451.834c0.002 8.28-6.712 14.992-14.992 14.992zM546.214 223.032c-5.618 14.026-13.766 26.336-24.222 36.59-10.274 10.072-22.714 18.352-36.984 24.61-6.034 2.642-12.39 4.932-19.032 6.864l57.312 60.45c2.8 2.816 5.678 6.094 8.55 9.736 4.666 5.902 7.13 12.804 7.13 19.958v36.918c0 7.794-2.952 14.874-8.57 20.504-5.604 5.584-12.68 8.536-20.468 8.536h-227.74c-7.808 0-14.894-2.958-20.484-8.552-5.596-5.594-8.554-12.678-8.554-20.488v-36.918c0-7.822 2.962-14.912 8.534-20.466 5.586-5.608 12.676-8.572 20.504-8.572h108.506l-48.54-50.964c-2.772-2.786-5.652-6.064-8.58-9.768-4.654-5.91-7.114-12.804-7.114-19.938v-36.918c0-7.824 2.964-14.914 8.54-20.474 5.59-5.604 12.678-8.566 20.498-8.566h43.156c18.612 0 33.514-2.842 44.294-8.446 8.004-4.162 11.42-10.214 11.42-20.23 0-10.57-3.918-17.842-12.706-23.582-10.452-6.83-24.922-10.294-43.010-10.294-11.464 0-21.142 0.776-28.782 2.31-7.25 1.446-13.186 3.346-17.654 5.65-4.194 2.156-7.482 4.47-9.78 6.886-2.416 2.538-4.354 5.248-5.758 8.058l-0.466 0.862c-3.1 5.306-6.158 9.44-9.388 12.682-5.092 5.070-11.72 7.75-19.164 7.75h-41.078c-7.466 0-14.408-2.65-20.050-7.642-6.508-5.73-9.68-13.776-8.922-22.796 1.226-13.082 5.494-26.4 12.684-39.582 7.248-13.282 17.826-25.218 31.436-35.47 13.246-9.988 29.79-18.198 49.17-24.406 19.242-6.168 42.038-9.294 67.75-9.294 21.49 0 41.76 2.842 60.252 8.442 18.808 5.698 35.46 14.046 49.496 24.81 14.384 11.030 25.786 24.74 33.894 40.75 8.144 16.102 12.274 34.562 12.274 54.866 0 16.74-2.81 32.258-8.354 46.134zM515.518 135.582c-6.056-11.962-14.596-22.22-25.384-30.492-11.16-8.56-24.598-15.258-39.938-19.906-15.664-4.746-33.004-7.154-51.544-7.154-22.6 0-42.314 2.646-58.598 7.864-16.166 5.178-29.712 11.836-40.266 19.794-10.18 7.668-17.97 16.376-23.156 25.88-4.788 8.778-7.772 17.418-8.882 25.65h38.794c0.84-1.014 2.038-2.65 3.548-5.196 2.71-5.298 6.284-10.29 10.62-14.842 4.612-4.848 10.598-9.18 17.772-12.87 7.038-3.63 15.384-6.376 25.5-8.394 9.696-1.948 21.038-2.894 34.67-2.894 24.016 0 44.010 5.108 59.42 15.182 17.202 11.236 26.294 28.074 26.294 48.694 0 21.264-9.536 37.462-27.58 46.848-15.1 7.848-34.66 11.828-58.136 11.828h-42.194v35.958c0 0.152 0 0.51 0.666 1.354 2.24 2.834 4.388 5.284 6.386 7.284l97.18 102.034h-177.544v34.994h225.814v-35.958c0-0.166 0-0.514-0.676-1.368-2.21-2.8-4.354-5.246-6.376-7.27l-96.384-101.658 29.102-3.882c14.11-1.882 27.010-5.352 38.334-10.308 10.922-4.79 20.35-11.032 28.018-18.55 7.468-7.324 13.314-16.182 17.374-26.314 4.12-10.308 6.208-22.080 6.208-34.99 0-15.556-3.044-29.46-9.042-41.318zM761.774 438.656c-5.602 5.588-12.68 8.54-20.47 8.54h-40.558c-6.386 0-12.362-1.77-17.77-5.268-3.25-2.104-6.424-4.316-9.434-6.576l-113.038-89.072c-6.216-4.836-10.058-11.464-11.108-19.168-1.068-7.84 0.966-15.322 5.884-21.64l24.542-30.81 0.518-0.614c5.104-5.746 11.572-9.324 18.714-10.348 7.702-1.1 15.126 0.932 21.498 5.892l49.596 38.768v-226.092c0-7.824 2.964-14.912 8.538-20.468 5.586-5.608 12.676-8.57 20.5-8.57h42.118c7.808 0 14.892 2.958 20.488 8.552 5.592 5.596 8.55 12.678 8.55 20.482v335.892c0 7.792-2.954 14.87-8.568 20.5zM578.89 323.98l0.004 0.002c0.004-0.008 0.008-0.014 0.012-0.022l-0.016 0.020zM740.34 83.23h-40.196v286.66l-97.264-76.024-23.304 29.254 112.112 88.346c2.418 1.808 4.97 3.584 7.582 5.276 0.59 0.382 0.986 0.456 1.474 0.456h39.596v-333.968zM934.718 804.538h-57.402v66.474c0 13.778-11.21 24.988-24.988 24.988h-60.966c-13.778 0-24.988-11.21-24.988-24.988v-66.474h-95.622v66.474c0 13.778-11.208 24.988-24.986 24.988h-60.966c-13.778 0-24.988-11.21-24.988-24.988v-66.474h-95.622v66.474c-0.002 13.778-11.21 24.988-24.988 24.988h-60.966c-13.778 0-24.988-11.21-24.988-24.988v-66.474h-95.622v66.474c0 13.778-11.21 24.988-24.988 24.988h-60.966c-13.778 0-24.988-11.21-24.988-24.988v-66.474h-57.402c-33.586 0-60.91-27.324-60.91-60.908v-810.72c0-33.586 27.324-60.91 60.91-60.91h50.904c8.28 0 14.992 6.712 14.992 14.992s-6.712 14.992-14.992 14.992h-50.904c-17.052 0-30.924 13.872-30.924 30.924v672.732h907.282v-113.622c0-8.28 6.712-14.992 14.992-14.992s14.992 6.712 14.992 14.992v251.61c0.002 33.586-27.32 60.91-60.906 60.91zM796.36 866.016h50.97v-152.94h-50.97v152.94zM589.796 866.016h50.972v-152.94h-50.972v152.94zM383.232 866.016h50.972v-152.94h-50.972v152.94zM176.67 866.016h50.97v-152.94h-50.97v152.94zM965.644 635.624l-907.286 0.002v108.002c0 17.052 13.874 30.924 30.924 30.924h57.402v-66.476c0-13.778 11.21-24.988 24.988-24.988h60.966c13.778 0 24.988 11.21 24.988 24.988v66.476h95.622v-66.476c0-13.778 11.21-24.988 24.988-24.988h60.966c13.778 0 24.988 11.21 24.988 24.988v66.476h95.622v-66.476c0-13.778 11.21-24.988 24.988-24.988h60.966c13.778 0 24.988 11.21 24.988 24.988v66.476h95.622v-66.476c0-13.778 11.21-24.988 24.988-24.988h60.966c13.778 0 24.988 11.21 24.988 24.988v66.476h57.402c17.052 0 30.924-13.872 30.924-30.924v-108.004z" />
<glyph unicode="&#xe92b;" glyph-name="folder" d="M970.194 735.8h-386.304c-7.728 0-15.222 2.788-21.088 7.84l-70.864 61.132c-13.686 11.788-31.156 18.28-49.192 18.28h-253.9c-29.668 0-53.806-24.138-53.806-53.806v-71.914h-81.234c-29.668 0-53.806-24.138-53.806-53.806v-644.772c0-29.668 24.138-53.806 53.806-53.806h781.346c29.668 0 53.806 24.138 53.806 53.806v71.898h81.236c29.668 0 53.806 24.138 53.806 53.806v557.536c0 29.67-24.138 53.806-53.806 53.806zM845.914-1.246c0-5.934-4.828-10.762-10.762-10.762h-781.346c-5.934 0-10.762 4.828-10.762 10.762v442.39h802.868v-442.39zM845.914 484.188h-802.87v159.336c0 5.934 4.828 10.762 10.762 10.762h253.886c7.738 0 15.224-2.782 21.084-7.838l70.868-61.118c13.672-11.79 31.142-18.282 49.196-18.282h386.312c5.934 0 10.762-4.828 10.762-10.762v-72.098zM980.956 124.458c0-5.934-4.828-10.762-10.762-10.762h-81.236v442.592c0 29.668-24.138 53.806-53.806 53.806h-386.312c-7.738 0-15.228 2.782-21.086 7.836l-70.866 61.114c-13.672 11.792-31.142 18.286-49.196 18.286h-129.608v71.916c0 5.934 4.828 10.762 10.762 10.762h253.9c7.728 0 15.222-2.788 21.088-7.84l70.864-61.132c13.686-11.786 31.156-18.278 49.192-18.278h386.306c5.934 0 10.762-4.828 10.762-10.762v-557.538zM760.288 367.778h-128.89c-11.886 0-21.522-9.636-21.522-21.522 0-11.884 9.636-21.522 21.522-21.522h128.89c11.886 0 21.522 9.638 21.522 21.522 0 11.888-9.634 21.522-21.522 21.522zM760.288 264.472h-128.89c-11.886 0-21.522-9.638-21.522-21.522s9.636-21.522 21.522-21.522h128.89c11.886 0 21.522 9.638 21.522 21.522s-9.634 21.522-21.522 21.522z" />
<glyph unicode="&#xe92c;" glyph-name="group" d="M330.85 888.724c-47.38 0-85.926-38.546-85.926-85.924 0-47.38 38.546-85.926 85.926-85.926 47.378 0 85.926 38.546 85.926 85.926 0 47.378-38.546 85.924-85.926 85.924zM330.85 756.876c-25.324 0-45.926 20.602-45.926 45.926s20.602 45.924 45.926 45.924c25.324 0 45.926-20.602 45.926-45.924s-20.602-45.926-45.926-45.926zM720.482 888.724c-47.38 0-85.926-38.546-85.926-85.924 0-47.38 38.548-85.926 85.926-85.926s85.926 38.546 85.926 85.926c0 47.378-38.546 85.924-85.926 85.924zM720.482 756.876c-25.324 0-45.926 20.602-45.926 45.926s20.602 45.924 45.926 45.924 45.926-20.602 45.926-45.924c0-25.322-20.602-45.926-45.926-45.926zM1004-80.722h-102.5l-0.916 428.424c-0.024 11.032-8.972 19.958-20 19.958-0.014 0-0.030 0-0.042 0-11.044-0.024-19.98-8.998-19.958-20.042l0.914-428.338h-124.164l-0.916 468.070c-0.002 1.2-0.128 2.37-0.334 3.512v22.628c0 19.826-2.996 39.25-8.898 57.958 21.182 11.7 44.996 17.868 69.712 17.922 0.11 0 0.212 0 0.322 0 37.804 0 73.34-14.21 100.080-40.032 26.652-25.736 41.372-59.95 41.45-96.37l0.32-89.322c0.040-11.022 8.986-19.928 19.998-19.928 0.026 0 0.048 0 0.074 0 11.044 0.040 19.966 9.026 19.928 20.072l-0.32 89.292c-0.1 47.308-19.158 91.712-53.664 125.030-18.72 18.076-40.786 31.67-64.812 40.314 17.32 17.908 26.832 41.414 26.778 66.38-0.114 52.45-42.818 95.040-95.242 95.040-0.068 0-0.138 0-0.206 0-52.516-0.114-95.15-42.93-95.040-95.446 0.054-25.442 10.012-49.338 28.040-67.29 0.592-0.59 1.208-1.146 1.812-1.718-5.154-2.13-10.212-4.5-15.166-7.102-24.406 43.626-64.25 76.060-111.386 91.956 20.174 19.2 32.788 46.276 32.788 76.26 0 58.082-47.252 105.334-105.332 105.334s-105.332-47.252-105.332-105.334c0-31.52 13.934-59.828 35.944-79.148-43.458-16.684-80.12-47.678-103.164-88.552-7.002 3.624-14.214 6.784-21.598 9.466 16.69 17.164 26.998 40.566 26.998 66.342 0 52.518-42.726 95.244-95.244 95.244s-95.244-42.726-95.244-95.244c0-27.166 11.45-51.692 29.756-69.058-65.264-26.804-111.188-89.712-111.188-162.862v-89.322c0-11.046 8.956-20 20-20s20 8.954 20 20v89.322c0 75.364 63.504 136.676 141.562 136.676 24.376 0 47.916-5.958 68.918-17.318-6.030-18.894-9.092-38.522-9.092-58.562v-494.21h-120.608v428.202c0 11.046-8.956 20-20 20s-20-8.954-20-20v-428.204h-149.028c-11.044 0-20-8.954-20-20s8.956-20 20-20h984c11.044 0 20 8.954 20 20s-8.956 20-20 20zM791.69 639.846c0.042 0 0.078 0 0.118 0 30.406 0 55.178-24.706 55.244-55.126 0.032-14.756-5.686-28.64-16.096-39.098-10.412-10.456-24.274-16.232-39.030-16.264-0.042 0-0.080 0-0.122 0-14.71 0-28.548 5.714-38.976 16.096-10.458 10.412-16.232 24.272-16.264 39.028-0.064 30.462 24.664 55.298 55.126 55.364zM264.924 529.368c-30.46 0-55.244 24.782-55.244 55.244s24.782 55.244 55.244 55.244c30.46 0 55.244-24.782 55.244-55.244s-24.784-55.244-55.244-55.244zM527.32 741.838c36.024 0 65.332-29.308 65.332-65.334s-29.308-65.334-65.332-65.334-65.332 29.308-65.332 65.334 29.308 65.334 65.332 65.334zM421.25-80.72h-51.614v246.276c14.624-10.736 32.354-17.63 51.614-19.198v-227.078zM627.432 427.578c-11.044 0-20-8.954-20-20v-488.3h-57.524v241.488c0 11.046-8.956 20-20 20s-20-8.954-20-20v-241.486h-48.656v488.3c0 11.046-8.956 20-20 20s-20-8.954-20-20v-221.018c-29.126 3.926-51.614 27.984-51.614 57v169.926c0 20.47 4.012 40.398 11.918 59.23 0.016 0.038 0.030 0.076 0.046 0.116 25.148 59.74 84.514 98.338 151.26 98.338 67.072 0 126.554-38.86 151.54-98.998 7.754-18.666 11.686-38.41 11.686-58.684v-169.926c0-28.026-20.98-51.426-48.656-56.53v220.544c0 11.044-8.956 20-20 20zM647.43-80.72v227.354c18.456 2.042 35.398 9.004 49.422 19.51l0.484-246.864h-49.906zM979.080 185.062c0-11.046-8.954-20-20-20s-20 8.954-20 20c0 11.046 8.954 20 20 20s20-8.954 20-20zM128.24 185.062c0-11.046-8.954-20-20-20s-20 8.954-20 20c0 11.046 8.954 20 20 20s20-8.954 20-20z" />
<glyph unicode="&#xe92d;" glyph-name="linkedin" d="M512 896c-282.318 0-512-229.682-512-512s229.682-512 512-512 512 229.682 512 512-229.682 512-512 512zM512-69.421c-250.018 0-453.421 203.406-453.421 453.421s203.403 453.421 453.421 453.421 453.421-203.406 453.421-453.421-203.403-453.421-453.421-453.421zM365.552 501.832c-16.178 0-29.29-13.112-29.29-29.29v-242.172c0-16.178 13.112-29.29 29.29-29.29s29.29 13.112 29.29 29.29v242.172c0 16.178-13.112 29.29-29.29 29.29zM365.552 638.526c-7.713 0-15.263-3.124-20.698-8.592-5.467-5.435-8.592-12.985-8.592-20.698s3.124-15.26 8.592-20.73c5.435-5.435 12.985-8.559 20.698-8.559s15.263 3.124 20.698 8.559c5.467 5.471 8.592 13.018 8.592 20.73s-3.124 15.263-8.592 20.698c-5.435 5.467-12.985 8.592-20.698 8.592zM618.581 479.051c-30.656 0-59.031-9.88-82.173-26.585v20.076c0 16.178-13.112 29.29-29.29 29.29s-29.29-13.112-29.29-29.29v-242.172c0-16.178 13.112-29.29 29.29-29.29s29.29 13.112 29.29 29.29v107.929c0 45.311 36.862 82.173 82.173 82.173s82.173-36.862 82.173-82.173v-114.437c0-16.178 13.112-29.29 29.29-29.29s29.29 13.112 29.29 29.29v114.437c0 77.611-63.142 140.752-140.752 140.752z" />
<glyph unicode="&#xe92f;" glyph-name="facebook-logo-in-circular-button-outlined-social-symbol" d="M1024 384c0 282.765-229.237 512-512 512-282.765 0-512-229.235-512-512 0-282.763 229.235-512 512-512 282.763 0 512 229.237 512 512zM46.545 384c0 257.071 208.384 465.455 465.455 465.455s465.455-208.384 465.455-465.455-208.384-465.455-465.455-465.455-465.455 208.384-465.455 465.455zM531.642 88.484v295.516h97.513l15.407 97.931h-112.919v49.105c0 25.553 8.378 49.943 45.056 49.943h73.308v97.745h-104.075c-87.505 0-111.383-57.622-111.383-137.495v-59.253h-60.043v-97.976h60.043v-295.516h97.094z" />
<glyph unicode="&#xe930;" glyph-name="internet" d="M894.905 44.632c80.225 90.412 129.095 209.267 129.095 339.368 0 135.362-52.895 258.525-138.982 350.173 0 0 0 0.018 0 0.018-0.071 0.106-0.177 0.141-0.23 0.23-89.671 95.32-215.305 156.337-355.046 161.121l-0.018 0.018-9.975 0.265c-2.578 0.088-5.155 0.177-7.751 0.177s-5.173-0.088-7.751-0.177l-9.94-0.265-0.018-0.018c-139.741-4.785-265.375-65.801-355.046-161.121-0.071-0.088-0.177-0.124-0.23-0.23 0 0 0-0.018-0.018-0.035-86.104-91.63-138.999-214.793-138.999-350.155 0-130.101 48.87-248.956 129.095-339.368 0.106-0.159 0.106-0.335 0.23-0.494 0.318-0.441 0.777-0.653 1.112-1.059 90.147-100.776 219.489-165.694 363.838-170.637l0.018-0.018 9.94-0.265c2.595-0.071 5.173-0.159 7.768-0.159s5.173 0.088 7.751 0.177l9.94 0.265 0.018 0.018c144.508 4.961 273.991 70.003 364.138 170.99 0.23 0.3 0.6 0.388 0.812 0.706 0.141 0.141 0.141 0.318 0.247 0.477zM35.752 366.345h211.915c1.995-74.84 16.614-147.562 42.637-215.693-50.211-18.167-98.216-42.531-143.201-72.934-66.154 78.689-107.326 178.988-111.351 288.627zM156.743 701.387c43.926-28.566 90.695-51.447 139.476-68.537-29.873-72.51-46.398-150.687-48.552-231.194h-211.915c4.22 114.882 49.205 219.489 120.991 299.732zM988.248 401.655h-211.915c-2.154 80.508-18.679 158.685-48.552 231.194 48.781 17.090 95.55 39.971 139.476 68.537 71.786-80.243 116.771-184.85 120.991-299.732zM494.345 631.826c-51.041 1.448-101.146 9.057-149.557 22.652 35.787 73.41 86.316 139.67 149.557 194.842v-217.494zM494.345 596.515v-194.86h-211.368c2.172 76.765 18.273 151.217 47.069 220.248 53.071-15.378 108.173-23.887 164.299-25.388zM529.655 596.515c56.126 1.501 111.228 9.993 164.317 25.388 28.796-69.032 44.897-143.484 47.069-220.248h-211.385v194.86zM529.655 631.826v217.494c63.241-55.172 113.77-121.432 149.557-194.842-48.41-13.594-98.516-21.204-149.557-22.652zM713.428 665.212c-33.916 71.062-80.984 135.804-139.264 191.294 103.389-13.524 196.414-60.275 268.058-129.201-40.678-25.812-83.827-46.574-128.794-62.093zM310.572 665.212c-44.968 15.519-88.117 36.281-128.777 62.093 71.627 68.926 164.67 115.677 268.058 129.201-58.297-55.49-105.366-120.232-139.282-191.294zM282.977 366.345h211.368v-177.223c-58.386-1.554-115.588-10.664-170.567-27.207-24.841 64.53-38.806 133.473-40.801 204.429zM494.345 153.812v-235.132c-67.69 59.057-120.761 130.807-156.849 210.397 50.617 14.919 103.194 23.217 156.849 24.735zM529.655-81.32v235.132c53.654-1.501 106.231-9.816 156.849-24.717-36.087-79.607-89.159-151.358-156.849-210.414zM529.655 189.122v177.223h211.368c-1.995-70.956-15.96-139.9-40.819-204.447-54.961 16.561-112.163 25.671-170.549 27.224zM776.333 366.345h211.915c-4.025-109.639-45.18-209.938-111.351-288.627-44.985 30.402-92.99 54.766-143.201 72.934 26.041 68.131 40.642 140.853 42.637 215.693zM171.096 51.271c41.772 27.754 86.246 50.070 132.714 66.754 34.339-76.977 83.633-147.121 146.026-206.53-108.597 14.212-205.789 65.059-278.74 139.776zM574.164-88.505c62.393 59.392 111.687 129.536 146.026 206.53 46.468-16.684 90.924-39 132.714-66.754-72.951-74.717-170.143-125.564-278.74-139.776z" />
<glyph unicode="&#xe931;" glyph-name="calendar" d="M763.262 679.884c39.243 0 71.031 31.577 71.031 70.89v74.195c0 39.348-31.753 71.031-71.031 71.031s-70.995-31.647-70.995-71.031v-74.23c0.035-39.278 31.753-70.855 70.995-70.855zM1015.596 773.138h-142.975v-36.113c0-59.602-48.42-108.163-108.128-108.163-59.778 0-108.093 48.561-108.093 108.163v36.113h-288.518v-36.113c0-59.602-48.491-108.163-108.163-108.163s-108.128 48.526-108.128 108.163v36.113l-144.276 1.793v-902.932l1009.372 0.211-1.090 900.927zM944.565-56.090h-865.096v576.824h865.166v-576.824h-0.070zM258.593 679.884c39.243 0 71.066 31.577 71.066 70.89v74.195c0 39.383-31.823 71.031-71.066 71.031s-70.96-31.647-70.96-71.031v-74.23c0-39.278 31.682-70.855 70.96-70.855zM368.093 443.339h113.614v-100.287h-113.614v100.287zM551.788 443.339h113.719v-100.287h-113.719v100.287zM722.155 443.339h113.614v-100.287h-113.614v100.287zM368.093 276.804h113.614v-100.216h-113.614v100.216zM551.788 276.804h113.719v-100.216h-113.719v100.216zM722.155 276.804h113.614v-100.216h-113.614v100.216zM368.093 106.963h113.614v-100.216h-113.614v100.216zM187.633 276.804h113.543v-100.216h-113.543v100.216zM187.633 106.963h113.543v-100.216h-113.543v100.216zM551.788 106.963h113.719v-100.216h-113.719v100.216zM722.155 106.963h113.614v-100.216h-113.614v100.216z" />
<glyph unicode="&#xe932;" glyph-name="view" d="M883.235 523.053c-205.648 205.648-540.229 205.648-745.877 0l-137.358-137.341 140.765-140.765c102.815-102.815 237.872-154.24 372.947-154.24s270.115 51.408 372.947 154.24l137.358 137.358-140.783 140.748zM862.184 269.405c-192.156-192.138-504.804-192.138-696.96 0l-116.307 116.307 112.899 112.899c192.156 192.138 504.804 192.138 696.96 0l116.307-116.307-112.899-112.899zM494.218 522.897c-66.768 0-121.081-54.314-121.081-121.081 0-9.548 7.749-17.297 17.297-17.297s17.297 7.749 17.297 17.297c0 47.689 38.798 86.486 86.486 86.486 9.548 0 17.297 7.749 17.297 17.297s-7.732 17.297-17.297 17.297zM511.516 609.384c-123.987 0-224.865-100.878-224.865-224.865s100.878-224.865 224.865-224.865 224.865 100.878 224.865 224.865-100.861 224.865-224.865 224.865zM511.516 194.249c-104.908 0-190.27 85.362-190.27 190.27s85.362 190.27 190.27 190.27 190.27-85.362 190.27-190.27-85.345-190.27-190.27-190.27z" />
</font>
</defs>
</svg>
